Поиск

(Latin Jazz, World Fusion, Big Band) [CD] Nettai Tropical Jazz Big Band - September - 1999, FLAC (tracks+.cue), lossless

(Latin Jazz, World Fusion, Big Band) [CD] Nettai Tropical Jazz Big Band - September - 1999, FLAC (tracks+.cue), lossless
Треклист:
Nettai Tropical Jazz Big Band - September
Жанр: Latin Jazz, World Fusion, Big Band
Носитель: CD
Страна-производитель диска (релиза): США
Год издания: 1999
Издатель (лейбл): TropiJazz/RMM
Номер по каталогу: RMD-84037
Страна исполнителя (группы): Япония
Аудиокодек: FLAC (*.flac)
Тип рипа: tracks+.cue
Битрейт аудио: lossless
Продолжительность: 52:56
Источник (релизер): wayth (what)
Наличие сканов в содержимом раздачи: нет
Треклист:
01. Mission Impossible (Schifrin) - 3:15
02. September (White-McKay-Willis) - 5:41
03. Obatala (Nakaji) - 5:50
04. Caravan (Ellington-Tizol-Mills) - 4:39
05. Azul (Aoki) - 5:39
06. Getaway (Cor-Taylor) - 3:43
07. Mi Tierra Natal (Nakaji) - 7:14
08. Flamingo (Grouya-Anderson) - 5:11
09. Rendez-Vous (Miyamoto) - 7:24
10. Leyenda (Sasaki) - 4:20
 
Лог создания рипа
X Lossless Decoder version 20131102 (145.0)
XLD extraction logfile from 2014-03-23 13:00:32 -0500
Nettai Tropical Jazz Big Band / Nettai Tropical Jazz Big Band
Used drive : MATSHITA DVD-R UJ-8A8 (revision HA13)
Media type : Pressed CD
Ripper mode : XLD Secure Ripper
Disable audio cache : OK for the drive with a cache less than 1375KiB
Make use of C2 pointers : NO
Read offset correction : 102
Max retry count : 20
Gap status : Analyzed, Appended (except HTOA)
TOC of the extracted CD
Track | Start | Length | Start sector | End sector
---------------------------------------------------------
1 | 00:00:00 | 03:14:42 | 0 | 14591
2 | 03:14:42 | 05:41:30 | 14592 | 40196
3 | 08:55:72 | 05:49:38 | 40197 | 66409
4 | 14:45:35 | 04:39:27 | 66410 | 87361
5 | 19:24:62 | 05:38:63 | 87362 | 112774
6 | 25:03:50 | 03:43:12 | 112775 | 129511
7 | 28:46:62 | 07:14:13 | 129512 | 162074
8 | 36:01:00 | 05:11:32 | 162075 | 185431
9 | 41:12:32 | 07:24:35 | 185432 | 218766
10 | 48:36:67 | 04:19:73 | 218767 | 238264
AccurateRip Summary (DiscID: 001327db-009bc8fd-940c680a)
Track 01 : OK (v1, confidence 1/2)
Track 02 : OK (v1, confidence 1/2)
Track 03 : OK (v1, confidence 1/2)
Track 04 : OK (v1, confidence 1/2)
Track 05 : OK (v1, confidence 1/2)
Track 06 : OK (v1, confidence 1/2)
Track 07 : OK (v1, confidence 1/2)
Track 08 : OK (v1, confidence 1/2)
Track 09 : OK (v1, confidence 1/2)
Track 10 : OK (v1, confidence 1/2)
->All tracks accurately ripped.
All Tracks
Album gain : -10.04 dB
Peak : 1.000000
Statistics
Read error : 0
Jitter error (maybe fixed) : 0
Retry sector count : 0
Damaged sector count : 0
Track 01
Filename : /Users/bwalker/Desktop/Nettai Tropical Jazz Big Band - 1999 - Nettai Tropical Jazz Big Band [FLAC]/01 - Mission Impossible.flac
Pre-gap length : 00:02:00
Track gain : -10.56 dB
Peak : 1.000000
CRC32 hash (test run) : F97ADF0D
CRC32 hash : F97ADF0D
CRC32 hash (skip zero) : FD3E3A66
AccurateRip v1 signature : 72A39D4F
AccurateRip v2 signature : E2E77EB6
->Accurately ripped (v1, confidence 1/2)
Statistics
Read error : 0
Jitter error (maybe fixed) : 0
Retry sector count : 0
Damaged sector count : 0
Track 02
Filename : /Users/bwalker/Desktop/Nettai Tropical Jazz Big Band - 1999 - Nettai Tropical Jazz Big Band [FLAC]/02 - September.flac
Track gain : -11.46 dB
Peak : 1.000000
CRC32 hash (test run) : 83A6D3EA
CRC32 hash : 83A6D3EA
CRC32 hash (skip zero) : E49C4B9D
AccurateRip v1 signature : E3CBF797
AccurateRip v2 signature : C566867A
->Accurately ripped (v1, confidence 1/2)
Statistics
Read error : 0
Jitter error (maybe fixed) : 0
Retry sector count : 0
Damaged sector count : 0
Track 03
Filename : /Users/bwalker/Desktop/Nettai Tropical Jazz Big Band - 1999 - Nettai Tropical Jazz Big Band [FLAC]/03 - Obatala.flac
Track gain : -9.90 dB
Peak : 1.000000
CRC32 hash (test run) : 146D99D7
CRC32 hash : 146D99D7
CRC32 hash (skip zero) : F07930EF
AccurateRip v1 signature : 793FAC71
AccurateRip v2 signature : E639F00A
->Accurately ripped (v1, confidence 1/2)
Statistics
Read error : 0
Jitter error (maybe fixed) : 0
Retry sector count : 0
Damaged sector count : 0
Track 04
Filename : /Users/bwalker/Desktop/Nettai Tropical Jazz Big Band - 1999 - Nettai Tropical Jazz Big Band [FLAC]/04 - Caravan.flac
Track gain : -9.62 dB
Peak : 1.000000
CRC32 hash (test run) : E770A579
CRC32 hash : E770A579
CRC32 hash (skip zero) : 87F97F6E
AccurateRip v1 signature : 0EAC9257
AccurateRip v2 signature : 0071F2C5
->Accurately ripped (v1, confidence 1/2)
Statistics
Read error : 0
Jitter error (maybe fixed) : 0
Retry sector count : 0
Damaged sector count : 0
Track 05
Filename : /Users/bwalker/Desktop/Nettai Tropical Jazz Big Band - 1999 - Nettai Tropical Jazz Big Band [FLAC]/05 - Azul.flac
Track gain : -6.34 dB
Peak : 1.000000
CRC32 hash (test run) : 0A3DDB01
CRC32 hash : 0A3DDB01
CRC32 hash (skip zero) : F266E56F
AccurateRip v1 signature : 2C4B59D7
AccurateRip v2 signature : 5C7AF765
->Accurately ripped (v1, confidence 1/2)
Statistics
Read error : 0
Jitter error (maybe fixed) : 0
Retry sector count : 0
Damaged sector count : 0
Track 06
Filename : /Users/bwalker/Desktop/Nettai Tropical Jazz Big Band - 1999 - Nettai Tropical Jazz Big Band [FLAC]/06 - Getaway.flac
Track gain : -10.29 dB
Peak : 1.000000
CRC32 hash (test run) : 62E50444
CRC32 hash : 62E50444
CRC32 hash (skip zero) : 950A6BB3
AccurateRip v1 signature : 3CFADF23
AccurateRip v2 signature : E33A0F63
->Accurately ripped (v1, confidence 1/2)
Statistics
Read error : 0
Jitter error (maybe fixed) : 0
Retry sector count : 0
Damaged sector count : 0
Track 07
Filename : /Users/bwalker/Desktop/Nettai Tropical Jazz Big Band - 1999 - Nettai Tropical Jazz Big Band [FLAC]/07 - Mi Tierra Natal.flac
Track gain : -9.63 dB
Peak : 1.000000
CRC32 hash (test run) : 6486D1E3
CRC32 hash : 6486D1E3
CRC32 hash (skip zero) : F9BE40A7
AccurateRip v1 signature : CCA445F0
AccurateRip v2 signature : 39CACCE1
->Accurately ripped (v1, confidence 1/2)
Statistics
Read error : 0
Jitter error (maybe fixed) : 0
Retry sector count : 0
Damaged sector count : 0
Track 08
Filename : /Users/bwalker/Desktop/Nettai Tropical Jazz Big Band - 1999 - Nettai Tropical Jazz Big Band [FLAC]/08 - Flamingo.flac
Track gain : -8.82 dB
Peak : 1.000000
CRC32 hash (test run) : 909472C2
CRC32 hash : 909472C2
CRC32 hash (skip zero) : B144527A
AccurateRip v1 signature : AD249288
AccurateRip v2 signature : 2660994F
->Accurately ripped (v1, confidence 1/2)
Statistics
Read error : 0
Jitter error (maybe fixed) : 0
Retry sector count : 0
Damaged sector count : 0
Track 09
Filename : /Users/bwalker/Desktop/Nettai Tropical Jazz Big Band - 1999 - Nettai Tropical Jazz Big Band [FLAC]/09 - Rendez-Vous.flac
Track gain : -8.86 dB
Peak : 1.000000
CRC32 hash (test run) : 4EE03D1F
CRC32 hash : 4EE03D1F
CRC32 hash (skip zero) : BD01DCE5
AccurateRip v1 signature : 79AA4A2C
AccurateRip v2 signature : 7E4E71B7
->Accurately ripped (v1, confidence 1/2)
Statistics
Read error : 0
Jitter error (maybe fixed) : 0
Retry sector count : 0
Damaged sector count : 0
Track 10
Filename : /Users/bwalker/Desktop/Nettai Tropical Jazz Big Band - 1999 - Nettai Tropical Jazz Big Band [FLAC]/10 - Leyenda.flac
Track gain : -10.14 dB
Peak : 1.000000
CRC32 hash (test run) : 8D28C754
CRC32 hash : 8D28C754
CRC32 hash (skip zero) : AD02B387
AccurateRip v1 signature : 88F8F612
AccurateRip v2 signature : 59CC61A9
->Accurately ripped (v1, confidence 1/2)
Statistics
Read error : 0
Jitter error (maybe fixed) : 0
Retry sector count : 0
Damaged sector count : 0
No errors occurred
End of status report
-----BEGIN XLD SIGNATURE-----
LjrzjtfL1Lg4H6qlEqSbvqvRl33JOMYHuvrs9bMVfYDNgfKP.yt68tfwDyHAJ8zNUvHtMUwuDidueiQMUgAM5Me7mUxFqA2rnP6C_3O
-----END XLD SIGNATURE-----
 
Содержание индексной карты (.CUE)
TITLE "September"
PERFORMER "Nettai Tropical Jazz Big Band"
REM GENRE "Jazz"
REM DATE "1999"
REM DISCID 940C680A
REM REPLAYGAIN_ALBUM_GAIN -10.04 dB
REM REPLAYGAIN_ALBUM_PEAK 1.000000
FILE "01 - Mission Impossible.flac" WAVE
TRACK 01 AUDIO
TITLE "Mission Impossible"
REM REPLAYGAIN_TRACK_GAIN -10.56 dB
REM REPLAYGAIN_TRACK_PEAK 1.000000
INDEX 01 00:00:00
FILE "02 - September.flac" WAVE
TRACK 02 AUDIO
TITLE "September"
REM REPLAYGAIN_TRACK_GAIN -11.46 dB
REM REPLAYGAIN_TRACK_PEAK 1.000000
INDEX 01 00:00:00
FILE "03 - Obatala.flac" WAVE
TRACK 03 AUDIO
TITLE "Obatala"
REM REPLAYGAIN_TRACK_GAIN -9.90 dB
REM REPLAYGAIN_TRACK_PEAK 1.000000
INDEX 01 00:00:00
FILE "04 - Caravan.flac" WAVE
TRACK 04 AUDIO
TITLE "Caravan"
REM REPLAYGAIN_TRACK_GAIN -9.62 dB
REM REPLAYGAIN_TRACK_PEAK 1.000000
INDEX 01 00:00:00
FILE "05 - Azul.flac" WAVE
TRACK 05 AUDIO
TITLE "Azul"
REM REPLAYGAIN_TRACK_GAIN -6.34 dB
REM REPLAYGAIN_TRACK_PEAK 1.000000
INDEX 01 00:00:00
FILE "06 - Getaway.flac" WAVE
TRACK 06 AUDIO
TITLE "Getaway"
REM REPLAYGAIN_TRACK_GAIN -10.29 dB
REM REPLAYGAIN_TRACK_PEAK 1.000000
INDEX 01 00:00:00
FILE "07 - Mi Tierra Natal.flac" WAVE
TRACK 07 AUDIO
TITLE "Mi Tierra Natal"
REM REPLAYGAIN_TRACK_GAIN -9.63 dB
REM REPLAYGAIN_TRACK_PEAK 1.000000
INDEX 01 00:00:00
FILE "08 - Flamingo.flac" WAVE
TRACK 08 AUDIO
TITLE "Flamingo"
REM REPLAYGAIN_TRACK_GAIN -8.82 dB
REM REPLAYGAIN_TRACK_PEAK 1.000000
INDEX 01 00:00:00
FILE "09 - Rendez-Vous.flac" WAVE
TRACK 09 AUDIO
TITLE "Rendez-Vous"
REM REPLAYGAIN_TRACK_GAIN -8.86 dB
REM REPLAYGAIN_TRACK_PEAK 1.000000
INDEX 01 00:00:00
FILE "10 - Leyenda.flac" WAVE
TRACK 10 AUDIO
TITLE "Leyenda"
REM REPLAYGAIN_TRACK_GAIN -10.14 dB
REM REPLAYGAIN_TRACK_PEAK 1.000000
INDEX 01 00:00:00
 
Отчет CUETools
[CUETools log; Date: 08.02.2016 15:45:50; Version: 2.1.5]
[CTDB TOCID: _I9SmBKtppn38kdK3KBzpR8bf1Y-] found.
Track | CTDB Status
1 | (1/1) Accurately ripped
2 | (1/1) Accurately ripped
3 | (1/1) Accurately ripped
4 | (1/1) Accurately ripped
5 | (1/1) Accurately ripped
6 | (1/1) Accurately ripped
7 | (1/1) Accurately ripped
8 | (1/1) Accurately ripped
9 | (1/1) Accurately ripped
10 | (1/1) Accurately ripped
[AccurateRip ID: 001327db-009bc8fd-940c680a] found.
Track [ CRC | V2 ] Status
01 [72a39d4f|e2e77eb6] (1+0/2) Accurately ripped
02 [e3cbf797|c566867a] (1+0/2) Accurately ripped
03 [793fac71|e639f00a] (1+0/2) Accurately ripped
04 [0eac9257|0071f2c5] (1+0/2) Accurately ripped
05 [2c4b59d7|5c7af765] (1+0/2) Accurately ripped
06 [3cfadf23|e33a0f63] (1+0/2) Accurately ripped
07 [cca445f0|39cacce1] (1+0/2) Accurately ripped
08 [ad249288|2660994f] (1+0/2) Accurately ripped
09 [79aa4a2c|7e4e71b7] (1+0/2) Accurately ripped
10 [88f8f612|59cc61a9] (1+0/2) Accurately ripped
Offsetted by 667:
01 [a61de2c3] (1/2) Accurately ripped
02 [c67854a5] (1/2) Accurately ripped
03 [ce602b81] (1/2) Accurately ripped
04 [3d3f595d] (1/2) Accurately ripped
05 [505747a5] (1/2) Accurately ripped
06 [d47694c5] (1/2) Accurately ripped
07 [23eacbc4] (1/2) Accurately ripped
08 [515110ec] (1/2) Accurately ripped
09 [8e7ab86a] (1/2) Accurately ripped
10 [9c014aca] (1/2) Accurately ripped
Track Peak [ CRC32 ] [W/O NULL]
-- 100,0 [6D751E92] [73F1FD16]
01 100,0 [F97ADF0D] [FD3E3A66]
02 100,0 [83A6D3EA] [E49C4B9D]
03 100,0 [146D99D7] [F07930EF]
04 100,0 [E770A579] [87F97F6E]
05 100,0 [0A3DDB01] [F266E56F]
06 100,0 [62E50444] [950A6BB3]
07 100,0 [6486D1E3] [F9BE40A7]
08 100,0 [909472C2] [B144527A]
09 100,0 [4EE03D1F] [BD01DCE5]
10 100,0 [8D28C754] [AD02B387]
 
AllMusic Review by Michael G. Nastos
The Japanese imitate jazz better than anyone, so it is no surprise that they can also assimilate Latin-flavored jazz. On this, their second CD, the 18-21 piece Nettai, led by percussionist Carlos Kanno, parades through two Earth Wind & Fire pop tunes, five originals written by bandmembers, and three standards including "Caravan," "Flamingo" (sung by Kanno), and the "Mission Impossible" theme. What you hear is equivalent to college big-band arrangements of the well-known tunes, and short, concise solos that are played straight and have typical, undistinctive flavor and character. A pair of highlights include the serene seascape feeling of "Azul" with the lead instrument being a pianica, sounding like a cross between a harmonica and a melodica. "Mi Terra Natal" is like a quicker Latin version of "A Time for Love." The most outstanding cuts are the last three: a crisp staccato reading of the ballad "Flamingo," with Kanno singing the lyric in English, "Rendezvous" with a wonderful chart and the best authentic percussion, and "Leyenda" with its fanfare intro and hottest, most spontaneous interaction between the horns and Latin percussion. Kanno is the ex-officio of the famous Orquesta de la Luz, so all the potential is there for Nettai to also emerge as a premier outfit. Perhaps by their next CD they'll dig a little deeper and go for a more fiery stance.
 
Состав
Kazuhiko Kondo - piccolo, soprano saxophone, alto saxophone
Manteru Nonoda, Osamu Koike - tenor saxophone
Dairo Miyamoto - flute, tenor saxophone, baritone saxophone
Shiro Sasaki, Masanori Suzuki, Keiji Matsushima - trumpet, flugelhorn
Hideaki Nakaji - trombone
Kan Nishida - bass trombone
Satoru "Salt" Shionoya, Ken Morimura - piano, keyboards
Getao Takahashi - bass
Akira Jinbo - drums
Carlos Kanno - vocals, bongos, percussion
Michiaki Tanaka - quinto, bongos, bata, percussion
Gen Ogimi - timbales, percussion
Recorded at Greenbird Studios, Tokyo on March 18-19, 1998.
20:40
272
Нет комментариев. Ваш будет первым!