Поиск

(Latin Jazz, World Fusion, Big Band) [CD] Nettai Tropical Jazz Big Band - My Favorite - 2000, FLAC (tracks+.cue), lossless

(Latin Jazz, World Fusion, Big Band) [CD] Nettai Tropical Jazz Big Band - My Favorite - 2000, FLAC (tracks+.cue), lossless
Треклист:
Nettai Tropical Jazz Big Band - My Favorite
Жанр: Latin Jazz, World Fusion, Big Band
Носитель: CD
Страна-производитель диска (релиза): США
Год издания: 2000
Издатель (лейбл): RMM
Номер по каталогу: 0282840862
Страна исполнителя (группы): Япония
Аудиокодек: FLAC (*.flac)
Тип рипа: tracks+.cue
Битрейт аудио: lossless
Продолжительность: 53:42
Источник (релизер): wayth (what)
Наличие сканов в содержимом раздачи: нет
Треклист:
01. Epoca de Oro (Morimura) - 3:56
02. My Favorite Things (Rodgers-Hammerstein) - 5:08
03. Got to Be Real (Foster-Paich) - 4:45
04. Sing, Sing, Sing (Prima) - 4:20
05. Por Que No? (Aoki) - 6:06
06. Rocks (The Brecker Brothers) - 5:22
07. Bitter Sweet Bomba (Bitter Sweet Samba) (Lachoff) - 3:55
08. Ruinas (Nakaji) - 6:00
09. Cherry Pink and Apple Blossom White (Ageron-David) - 3:32
10. I Can't Stop Loving You (Barbee-Shelby-Shockley) - 5:48
11. Prende el Fuego (Sasaki) - 4:50
 
Лог создания рипа
X Lossless Decoder version 20131102 (145.0)
XLD extraction logfile from 2014-03-23 10:58:40 -0500
Nettai Tropical Jazz Big Band / My Favorite
Used drive : MATSHITA DVD-R UJ-8A8 (revision HA13)
Media type : Pressed CD
Ripper mode : XLD Secure Ripper
Disable audio cache : OK for the drive with a cache less than 1375KiB
Make use of C2 pointers : NO
Read offset correction : 102
Max retry count : 20
Gap status : Analyzed, Appended (except HTOA)
TOC of the extracted CD
Track | Start | Length | Start sector | End sector
---------------------------------------------------------
1 | 00:00:00 | 03:56:37 | 0 | 17736
2 | 03:56:37 | 05:08:00 | 17737 | 40836
3 | 09:04:37 | 04:45:37 | 40837 | 62248
4 | 13:49:74 | 04:19:74 | 62249 | 81747
5 | 18:09:73 | 06:06:01 | 81748 | 109198
6 | 24:15:74 | 05:21:38 | 109199 | 133311
7 | 29:37:37 | 03:55:00 | 133312 | 150936
8 | 33:32:37 | 06:00:36 | 150937 | 177972
9 | 39:32:73 | 03:31:40 | 177973 | 193837
10 | 43:04:38 | 05:48:36 | 193838 | 219973
11 | 48:52:74 | 04:49:46 | 219974 | 241694
AccurateRip Summary
Disc not found in AccurateRip DB.
All Tracks
Album gain : -8.53 dB
Peak : 0.999939
Statistics
Read error : 0
Jitter error (maybe fixed) : 0
Retry sector count : 0
Damaged sector count : 0
Track 01
Filename : /Users/bwalker/Desktop/Nettai Tropical Jazz Big Band - Unknown Year - My Favorite [FLAC]/01 - Epoca De Oro.flac
Pre-gap length : 00:02:00
Track gain : -8.89 dB
Peak : 0.940033
CRC32 hash (test run) : 3BF8CE33
CRC32 hash : 3BF8CE33
CRC32 hash (skip zero) : D32E4FD6
AccurateRip v1 signature : A284EE74
AccurateRip v2 signature : 54EF6E94
->Track not present in AccurateRip database.
Statistics
Read error : 0
Jitter error (maybe fixed) : 0
Retry sector count : 0
Damaged sector count : 0
Track 02
Filename : /Users/bwalker/Desktop/Nettai Tropical Jazz Big Band - Unknown Year - My Favorite [FLAC]/02 - My Favorite Things.flac
Track gain : -7.73 dB
Peak : 0.999939
CRC32 hash (test run) : 03C6B208
CRC32 hash : 03C6B208
CRC32 hash (skip zero) : 88EF7F8A
AccurateRip v1 signature : 4E27745E
AccurateRip v2 signature : 544D680E
->Track not present in AccurateRip database.
Statistics
Read error : 0
Jitter error (maybe fixed) : 0
Retry sector count : 0
Damaged sector count : 0
Track 03
Filename : /Users/bwalker/Desktop/Nettai Tropical Jazz Big Band - Unknown Year - My Favorite [FLAC]/03 - Got To Be Real.flac
Track gain : -9.27 dB
Peak : 0.999939
CRC32 hash (test run) : F6B82FE4
CRC32 hash : F6B82FE4
CRC32 hash (skip zero) : AA731038
AccurateRip v1 signature : 90112C2E
AccurateRip v2 signature : 87D3989D
->Track not present in AccurateRip database.
Statistics
Read error : 0
Jitter error (maybe fixed) : 0
Retry sector count : 0
Damaged sector count : 0
Track 04
Filename : /Users/bwalker/Desktop/Nettai Tropical Jazz Big Band - Unknown Year - My Favorite [FLAC]/04 - Sing, Sing, Sing.flac
Track gain : -8.85 dB
Peak : 0.999908
CRC32 hash (test run) : C2CFCED4
CRC32 hash : C2CFCED4
CRC32 hash (skip zero) : E8AF274B
AccurateRip v1 signature : B4B02543
AccurateRip v2 signature : A1EFFCD5
->Track not present in AccurateRip database.
Statistics
Read error : 0
Jitter error (maybe fixed) : 0
Retry sector count : 0
Damaged sector count : 0
Track 05
Filename : /Users/bwalker/Desktop/Nettai Tropical Jazz Big Band - Unknown Year - My Favorite [FLAC]/05 - ВїPor Que No?.flac
Track gain : -5.89 dB
Peak : 0.940399
CRC32 hash (test run) : 9AD3B3A6
CRC32 hash : 9AD3B3A6
CRC32 hash (skip zero) : 24CD41FE
AccurateRip v1 signature : 3CB368A4
AccurateRip v2 signature : 6A9793C3
->Track not present in AccurateRip database.
Statistics
Read error : 0
Jitter error (maybe fixed) : 0
Retry sector count : 0
Damaged sector count : 0
Track 06
Filename : /Users/bwalker/Desktop/Nettai Tropical Jazz Big Band - Unknown Year - My Favorite [FLAC]/06 - Rocks.flac
Track gain : -8.69 dB
Peak : 0.999939
CRC32 hash (test run) : 796B15C5
CRC32 hash : 796B15C5
CRC32 hash (skip zero) : 61B9AC6D
AccurateRip v1 signature : F9519A9B
AccurateRip v2 signature : 1237A306
->Track not present in AccurateRip database.
Statistics
Read error : 0
Jitter error (maybe fixed) : 0
Retry sector count : 0
Damaged sector count : 0
Track 07
Filename : /Users/bwalker/Desktop/Nettai Tropical Jazz Big Band - Unknown Year - My Favorite [FLAC]/07 - Bitter Sweet Bomba (Bitter Sweet Samba).flac
Track gain : -9.24 dB
Peak : 0.999939
CRC32 hash (test run) : B0B350C6
CRC32 hash : B0B350C6
CRC32 hash (skip zero) : 080A8332
AccurateRip v1 signature : 75DB4791
AccurateRip v2 signature : AD520863
->Track not present in AccurateRip database.
Statistics
Read error : 0
Jitter error (maybe fixed) : 0
Retry sector count : 0
Damaged sector count : 0
Track 08
Filename : /Users/bwalker/Desktop/Nettai Tropical Jazz Big Band - Unknown Year - My Favorite [FLAC]/08 - Ruinas.flac
Track gain : -7.77 dB
Peak : 0.997559
CRC32 hash (test run) : 93F85566
CRC32 hash : 93F85566
CRC32 hash (skip zero) : AD06284D
AccurateRip v1 signature : 7FC7746E
AccurateRip v2 signature : A5C3252D
->Track not present in AccurateRip database.
Statistics
Read error : 0
Jitter error (maybe fixed) : 0
Retry sector count : 0
Damaged sector count : 0
Track 09
Filename : /Users/bwalker/Desktop/Nettai Tropical Jazz Big Band - Unknown Year - My Favorite [FLAC]/09 - Cherry Pink And Apple Blossom White.flac
Track gain : -7.20 dB
Peak : 0.954681
CRC32 hash (test run) : C34F33E5
CRC32 hash : C34F33E5
CRC32 hash (skip zero) : C021D87E
AccurateRip v1 signature : 97CE0CC0
AccurateRip v2 signature : 5A57A76F
->Track not present in AccurateRip database.
Statistics
Read error : 0
Jitter error (maybe fixed) : 0
Retry sector count : 0
Damaged sector count : 0
Track 10
Filename : /Users/bwalker/Desktop/Nettai Tropical Jazz Big Band - Unknown Year - My Favorite [FLAC]/10 - I Can't Stop Loving You.flac
Track gain : -8.77 dB
Peak : 0.999939
CRC32 hash (test run) : 5423AAAA
CRC32 hash : 5423AAAA
CRC32 hash (skip zero) : FAAE38A0
AccurateRip v1 signature : DBC8D434
AccurateRip v2 signature : 9AC0FBE9
->Track not present in AccurateRip database.
Statistics
Read error : 0
Jitter error (maybe fixed) : 0
Retry sector count : 0
Damaged sector count : 0
Track 11
Filename : /Users/bwalker/Desktop/Nettai Tropical Jazz Big Band - Unknown Year - My Favorite [FLAC]/11 - Prende El Fuego.flac
Track gain : -8.23 dB
Peak : 0.999939
CRC32 hash (test run) : 528F714D
CRC32 hash : 528F714D
CRC32 hash (skip zero) : 3524DCA3
AccurateRip v1 signature : 7DF6C76E
AccurateRip v2 signature : 78AC6C4A
->Track not present in AccurateRip database.
Statistics
Read error : 0
Jitter error (maybe fixed) : 0
Retry sector count : 0
Damaged sector count : 0
No errors occurred
End of status report
-----BEGIN XLD SIGNATURE-----
jUHUHLrqM37iwtUUtxsPSVzp2XBD_exD._dxSpr0BDFpPY7NVUL9YLCLqVK1s5d4glIV1J6mdiGhGyxtdUd6YC3rLW_cRGywo9VfnV8
-----END XLD SIGNATURE-----
 
Содержание индексной карты (.CUE)
TITLE "My Favorite"
PERFORMER "Nettai Tropical Jazz Big Band"
REM GENRE "Jazz"
REM DATE "2000"
REM DISCID 9C0C960B
REM REPLAYGAIN_ALBUM_GAIN -8.53 dB
REM REPLAYGAIN_ALBUM_PEAK 0.999939
FILE "01 - Epoca de Oro.flac" WAVE
TRACK 01 AUDIO
TITLE "Epoca de Oro"
REM REPLAYGAIN_TRACK_GAIN -8.89 dB
REM REPLAYGAIN_TRACK_PEAK 0.940033
INDEX 01 00:00:00
FILE "02 - My Favorite Things.flac" WAVE
TRACK 02 AUDIO
TITLE "My Favorite Things"
REM REPLAYGAIN_TRACK_GAIN -7.73 dB
REM REPLAYGAIN_TRACK_PEAK 0.999939
INDEX 01 00:00:00
FILE "03 - Got to Be Real.flac" WAVE
TRACK 03 AUDIO
TITLE "Got to Be Real"
REM REPLAYGAIN_TRACK_GAIN -9.27 dB
REM REPLAYGAIN_TRACK_PEAK 0.999939
INDEX 01 00:00:00
FILE "04 - Sing, Sing, Sing.flac" WAVE
TRACK 04 AUDIO
TITLE "Sing, Sing, Sing"
REM REPLAYGAIN_TRACK_GAIN -8.85 dB
REM REPLAYGAIN_TRACK_PEAK 0.999908
INDEX 01 00:00:00
FILE "05 - Por Que No.flac" WAVE
TRACK 05 AUDIO
TITLE "Por Que No?"
REM REPLAYGAIN_TRACK_GAIN -5.89 dB
REM REPLAYGAIN_TRACK_PEAK 0.940399
INDEX 01 00:00:00
FILE "06 - Rocks.flac" WAVE
TRACK 06 AUDIO
TITLE "Rocks"
REM REPLAYGAIN_TRACK_GAIN -8.69 dB
REM REPLAYGAIN_TRACK_PEAK 0.999939
INDEX 01 00:00:00
FILE "07 - Bitter Sweet Bomba (Bitter Sweet Samba).flac" WAVE
TRACK 07 AUDIO
TITLE "Bitter Sweet Bomba (Bitter Sweet Samba)"
REM REPLAYGAIN_TRACK_GAIN -9.24 dB
REM REPLAYGAIN_TRACK_PEAK 0.999939
INDEX 01 00:00:00
FILE "08 - Ruinas.flac" WAVE
TRACK 08 AUDIO
TITLE "Ruinas"
REM REPLAYGAIN_TRACK_GAIN -7.77 dB
REM REPLAYGAIN_TRACK_PEAK 0.997559
INDEX 01 00:00:00
FILE "09 - Cherry Pink and Apple Blossom White.flac" WAVE
TRACK 09 AUDIO
TITLE "Cherry Pink and Apple Blossom White"
REM REPLAYGAIN_TRACK_GAIN -7.20 dB
REM REPLAYGAIN_TRACK_PEAK 0.954681
INDEX 01 00:00:00
FILE "10 - I Can't Stop Loving You.flac" WAVE
TRACK 10 AUDIO
TITLE "I Can't Stop Loving You"
REM REPLAYGAIN_TRACK_GAIN -8.77 dB
REM REPLAYGAIN_TRACK_PEAK 0.999939
INDEX 01 00:00:00
FILE "11 - Prende el Fuego.flac" WAVE
TRACK 11 AUDIO
TITLE "Prende el Fuego"
REM REPLAYGAIN_TRACK_GAIN -8.23 dB
REM REPLAYGAIN_TRACK_PEAK 0.999939
INDEX 01 00:00:00
 
AllMusic Review by Michael G. Nastos
This Japanese based 20 piece orchestra plays it to the hilt in mostly latin styles, but pop, jazz and funk music influences creep in. Leader/percussionist Carlos Kanno shows a certain dynamism in his direction of the group. As they continue to develop a repertoire, they show great expertise in assimilating their heroes, and their original Afro-Cuban tunes show much promise. While solos are not riveting they are consistently quite good and don't overstate their case. The best pieces are the urgent instrumentals as the decent mambo "Epoca De Oro," the Puerto Rican based, flute and muted trumpet informed "Bitter Sweet Bomba," good 6/8 groove of "Ruinas," and the hot piano montuno setting off the crackling horns and bubbling percussion of "Prende El Fuego." Mixing genres there's the punchy stacatto, salsa to swing melody of "My Favorite Things," and a peculiar sped up rhythm but slowed line of the well known "Sing, Sing, Sing" replete with hokey female vocals. "Por Que No?" is an easy latinish to light rocker with a flugelhorn section and Taisei Aoki on the pianica/melodica, sounds as if a breezy harmonica. On the pop side there's the straight r & b funk number "Got To Be Real," rather neat latin funk treatment of "I Can't Stop Loving You," and Kanno singing as Steve Lawrence in English lyrics for "Cherry Pink & Apple Blossom White." The zinger is Randy Brecker's definitive skunk funker "Rocks," resplendant in horn saturated counterpoint on the bridge, a very good re-creation. Nettai gets better with age, and as they grow more towards individualism they will bring more meat and juice to the table.
 
Состав
Kazuhiko Kondo - soprano saxophone, alto saxophone, flute
Masahiro Fujioka - soprano saxophone, alto saxophone
Manteru Nonoda - tenor saxophone
Dairo Miyamoto - flute, baritone saxophone
Masanori Suzuki, Keiji Matsushima - trumpet, flugelhorn
Hideaki Nakaji, Taisei Aoki - trombone
Kan Nishida - bass trombone
Satoru Shionoya - piano, keyboards
Ken Morimura - piano
Getao Takahashi - bass, percussion
Akira Jinbo - drums
Carlos Kanno - vocals, bongos, percussion
Michiaki Tanaka - quinto, bata, percussion
Gen Ogimi - timbales, percussion
Recorded at Bunkamura Studio, Tokyo on April 4-9, 1999.
20:41
277
Нет комментариев. Ваш будет первым!