Поиск

(Latin Jazz, World Fusion, Big Band) [CD] Nettai Tropical Jazz Big Band - Live in Yokohama Japan - 1998, FLAC (tracks+.cue), lossless

(Latin Jazz, World Fusion, Big Band) [CD] Nettai Tropical Jazz Big Band - Live in Yokohama Japan - 1998, FLAC (tracks+.cue), lossless
Треклист:
Nettai Tropical Jazz Big Band - Live in Yokohama Japan
Жанр: Latin Jazz, World Fusion, Big Band
Носитель: CD
Страна-производитель диска (релиза): США
Год издания: 1998
Издатель (лейбл): TropiJazz/RMM
Номер по каталогу: RMD-82290
Страна исполнителя (группы): Япония
Аудиокодек: FLAC (*.flac)
Тип рипа: tracks+.cue
Битрейт аудио: lossless
Продолжительность: 68:18
Источник (релизер): wayth (what)
Наличие сканов в содержимом раздачи: сетевые
Треклист:
01. Mambo Inn (Beuze) - 4:38
02. Fiesta a la King (Puente) - 8:40
03. Squib Cakes (Tomson) - 9:08
04. Sky Dive (Hubert) - 8:23
05. Melting Pot Harmony (Shionoya) - 6:16
06. Kangaroo '98 (Sasaki) - 7:54
07. Palladium (Shorter) - 9:28
08. Tune Up (Davis) - 9:29
09. Mambo Medley: Mambo #5 (Prado)/Tequira (Chuck)/El Mambo (Prado)/El Cumbanchero (Marin) - 4:22
 
Лог создания рипа
X Lossless Decoder version 20131102 (145.0)
XLD extraction logfile from 2014-03-23 11:28:16 -0500
Nettai Tropical Jazz Big Band / Live In Yokohama Japan Japan
Used drive : MATSHITA DVD-R UJ-8A8 (revision HA13)
Media type : Pressed CD
Ripper mode : XLD Secure Ripper
Disable audio cache : OK for the drive with a cache less than 1375KiB
Make use of C2 pointers : NO
Read offset correction : 102
Max retry count : 20
Gap status : Analyzed, Appended (except HTOA)
TOC of the extracted CD
Track | Start | Length | Start sector | End sector
---------------------------------------------------------
1 | 00:00:00 | 04:38:02 | 0 | 20851
2 | 04:38:02 | 08:39:62 | 20852 | 59838
3 | 13:17:64 | 09:08:31 | 59839 | 100969
4 | 22:26:20 | 08:23:25 | 100970 | 138719
5 | 30:49:45 | 06:15:42 | 138720 | 166886
6 | 37:05:12 | 07:53:55 | 166887 | 202416
7 | 44:58:67 | 09:27:40 | 202417 | 244981
8 | 54:26:32 | 09:28:58 | 244982 | 287639
9 | 63:55:15 | 04:21:52 | 287640 | 307266
AccurateRip Summary (DiscID: 001756e6-00ad5015-82100009)
Track 01 : OK (v2, confidence 2/2)
Track 02 : OK (v2, confidence 2/2)
Track 03 : OK (v2, confidence 2/2)
Track 04 : OK (v2, confidence 2/2)
Track 05 : OK (v2, confidence 2/2)
Track 06 : OK (v2, confidence 2/2)
Track 07 : OK (v2, confidence 2/2)
Track 08 : OK (v2, confidence 2/2)
Track 09 : OK (v2, confidence 2/2)
->All tracks accurately ripped.
All Tracks
Album gain : -6.23 dB
Peak : 0.937500
Statistics
Read error : 0
Jitter error (maybe fixed) : 0
Retry sector count : 0
Damaged sector count : 0
Track 01
Filename : /Users/bwalker/Desktop/Nettai Tropical Jazz Big Band - 1998 - Live In Yokohama Japan [FLAC]/01 - Mambo Inn.flac
Pre-gap length : 00:02:00
Track gain : -5.07 dB
Peak : 0.937500
CRC32 hash (test run) : 97330C10
CRC32 hash : 97330C10
CRC32 hash (skip zero) : E4A544D3
AccurateRip v1 signature : 15700853
AccurateRip v2 signature : 6F59E8C1
->Accurately ripped (v2, confidence 2/2)
Statistics
Read error : 0
Jitter error (maybe fixed) : 0
Retry sector count : 0
Damaged sector count : 0
Track 02
Filename : /Users/bwalker/Desktop/Nettai Tropical Jazz Big Band - 1998 - Live In Yokohama Japan [FLAC]/02 - Fiesta a la King.flac
Track gain : -5.75 dB
Peak : 0.937500
CRC32 hash (test run) : D4C5BD08
CRC32 hash : D4C5BD08
CRC32 hash (skip zero) : 673B35B7
AccurateRip v1 signature : 5DBE7D49
AccurateRip v2 signature : 76FB4A85
->Accurately ripped (v2, confidence 2/2)
Statistics
Read error : 0
Jitter error (maybe fixed) : 0
Retry sector count : 0
Damaged sector count : 0
Track 03
Filename : /Users/bwalker/Desktop/Nettai Tropical Jazz Big Band - 1998 - Live In Yokohama Japan [FLAC]/03 - Squib Cakes.flac
Track gain : -6.14 dB
Peak : 0.937500
CRC32 hash (test run) : 9670BDCF
CRC32 hash : 9670BDCF
CRC32 hash (skip zero) : 77489710
AccurateRip v1 signature : A5BEEB67
AccurateRip v2 signature : D06F5F73
->Accurately ripped (v2, confidence 2/2)
Statistics
Read error : 0
Jitter error (maybe fixed) : 0
Retry sector count : 0
Damaged sector count : 0
Track 04
Filename : /Users/bwalker/Desktop/Nettai Tropical Jazz Big Band - 1998 - Live In Yokohama Japan [FLAC]/04 - Sky Dive.flac
Track gain : -3.08 dB
Peak : 0.937500
CRC32 hash (test run) : F011B671
CRC32 hash : F011B671
CRC32 hash (skip zero) : 68D0FC8F
AccurateRip v1 signature : 028B0FBC
AccurateRip v2 signature : 99FAA570
->Accurately ripped (v2, confidence 2/2)
Statistics
Read error : 0
Jitter error (maybe fixed) : 0
Retry sector count : 0
Damaged sector count : 0
Track 05
Filename : /Users/bwalker/Desktop/Nettai Tropical Jazz Big Band - 1998 - Live In Yokohama Japan [FLAC]/05 - Melting Pot Harmony.flac
Track gain : -6.46 dB
Peak : 0.937500
CRC32 hash (test run) : BF9322C8
CRC32 hash : BF9322C8
CRC32 hash (skip zero) : DD3C8337
AccurateRip v1 signature : EAF944CB
AccurateRip v2 signature : 9B56D65B
->Accurately ripped (v2, confidence 2/2)
Statistics
Read error : 0
Jitter error (maybe fixed) : 0
Retry sector count : 0
Damaged sector count : 0
Track 06
Filename : /Users/bwalker/Desktop/Nettai Tropical Jazz Big Band - 1998 - Live In Yokohama Japan [FLAC]/06 - Kangaroo '98.flac
Track gain : -6.60 dB
Peak : 0.937500
CRC32 hash (test run) : BA2314CD
CRC32 hash : BA2314CD
CRC32 hash (skip zero) : 8C3938B5
AccurateRip v1 signature : B65B3B09
AccurateRip v2 signature : 03A5CCD8
->Accurately ripped (v2, confidence 2/2)
Statistics
Read error : 0
Jitter error (maybe fixed) : 0
Retry sector count : 0
Damaged sector count : 0
Track 07
Filename : /Users/bwalker/Desktop/Nettai Tropical Jazz Big Band - 1998 - Live In Yokohama Japan [FLAC]/07 - Palladium.flac
Track gain : -4.76 dB
Peak : 0.937500
CRC32 hash (test run) : CE8F17EB
CRC32 hash : CE8F17EB
CRC32 hash (skip zero) : 2D499E7B
AccurateRip v1 signature : 0E59766A
AccurateRip v2 signature : 585E1EA1
->Accurately ripped (v2, confidence 2/2)
Statistics
Read error : 0
Jitter error (maybe fixed) : 0
Retry sector count : 0
Damaged sector count : 0
Track 08
Filename : /Users/bwalker/Desktop/Nettai Tropical Jazz Big Band - 1998 - Live In Yokohama Japan [FLAC]/08 - Tune up.flac
Track gain : -6.80 dB
Peak : 0.937500
CRC32 hash (test run) : 3864236D
CRC32 hash : 3864236D
CRC32 hash (skip zero) : 0897EE9A
AccurateRip v1 signature : 27E5E8FC
AccurateRip v2 signature : 7F59D767
->Accurately ripped (v2, confidence 2/2)
Statistics
Read error : 0
Jitter error (maybe fixed) : 0
Retry sector count : 0
Damaged sector count : 0
Track 09
Filename : /Users/bwalker/Desktop/Nettai Tropical Jazz Big Band - 1998 - Live In Yokohama Japan [FLAC]/09 - Mambo Medley.flac
Track gain : -8.48 dB
Peak : 0.937500
CRC32 hash (test run) : 9EAD2CD3
CRC32 hash : 9EAD2CD3
CRC32 hash (skip zero) : 04FEE5A4
AccurateRip v1 signature : 7EB9CFA0
AccurateRip v2 signature : 0053F0ED
->Accurately ripped (v2, confidence 2/2)
Statistics
Read error : 0
Jitter error (maybe fixed) : 0
Retry sector count : 0
Damaged sector count : 0
No errors occurred
End of status report
-----BEGIN XLD SIGNATURE-----
ivOXPVACTPxu5jhax2eicFNV0jNRvfeXFrZZEBjBSPBrE79wwYiMULJ_P595ftizIhHop7zqBioKiVo1nY_DcoEyTfpz2ITt7s6Lx2u
-----END XLD SIGNATURE-----
 
Содержание индексной карты (.CUE)
TITLE "Live in Yokohama Japan"
PERFORMER "Nettai Tropical Jazz Big Band"
REM GENRE "Jazz"
REM DATE "1998"
REM DISCID 82100009
REM REPLAYGAIN_ALBUM_GAIN -6.23 dB
REM REPLAYGAIN_ALBUM_PEAK 0.937500
FILE "01 - Mambo Inn.flac" WAVE
TRACK 01 AUDIO
TITLE "Mambo Inn"
REM REPLAYGAIN_TRACK_GAIN -5.07 dB
REM REPLAYGAIN_TRACK_PEAK 0.937500
INDEX 01 00:00:00
FILE "02 - Fiesta a la King.flac" WAVE
TRACK 02 AUDIO
TITLE "Fiesta a la King"
REM REPLAYGAIN_TRACK_GAIN -5.75 dB
REM REPLAYGAIN_TRACK_PEAK 0.937500
INDEX 01 00:00:00
FILE "03 - Squib Cakes.flac" WAVE
TRACK 03 AUDIO
TITLE "Squib Cakes"
REM REPLAYGAIN_TRACK_GAIN -6.14 dB
REM REPLAYGAIN_TRACK_PEAK 0.937500
INDEX 01 00:00:00
FILE "04 - Sky Dive.flac" WAVE
TRACK 04 AUDIO
TITLE "Sky Dive"
REM REPLAYGAIN_TRACK_GAIN -3.08 dB
REM REPLAYGAIN_TRACK_PEAK 0.937500
INDEX 01 00:00:00
FILE "05 - Melting Pot Harmony.flac" WAVE
TRACK 05 AUDIO
TITLE "Melting Pot Harmony"
REM REPLAYGAIN_TRACK_GAIN -6.46 dB
REM REPLAYGAIN_TRACK_PEAK 0.937500
INDEX 01 00:00:00
FILE "06 - Kangaroo '98.flac" WAVE
TRACK 06 AUDIO
TITLE "Kangaroo '98"
REM REPLAYGAIN_TRACK_GAIN -6.60 dB
REM REPLAYGAIN_TRACK_PEAK 0.937500
INDEX 01 00:00:00
FILE "07 - Palladium.flac" WAVE
TRACK 07 AUDIO
TITLE "Palladium"
REM REPLAYGAIN_TRACK_GAIN -4.76 dB
REM REPLAYGAIN_TRACK_PEAK 0.937500
INDEX 01 00:00:00
FILE "08 - Tune Up.flac" WAVE
TRACK 08 AUDIO
TITLE "Tune Up"
REM REPLAYGAIN_TRACK_GAIN -6.80 dB
REM REPLAYGAIN_TRACK_PEAK 0.937500
INDEX 01 00:00:00
FILE "09 - Mambo Medley.flac" WAVE
TRACK 09 AUDIO
TITLE "Mambo Medley"
REM REPLAYGAIN_TRACK_GAIN -8.48 dB
REM REPLAYGAIN_TRACK_PEAK 0.937500
INDEX 01 00:00:00
 
Отчет CUETools
[CUETools log; Date: 08.02.2016 15:18:59; Version: 2.1.5]
[CTDB TOCID: Vo_al0W8EtuUXhAghHtgzoxBFaQ-] found.
Track | CTDB Status
1 | (1/1) Accurately ripped
2 | (1/1) Accurately ripped
3 | (1/1) Accurately ripped
4 | (1/1) Accurately ripped
5 | (1/1) Accurately ripped
6 | (1/1) Accurately ripped
7 | (1/1) Accurately ripped
8 | (1/1) Accurately ripped
9 | (1/1) Accurately ripped
[AccurateRip ID: 001756e6-00ad5015-82100009] found.
Track [ CRC | V2 ] Status
01 [15700853|6f59e8c1] (0+2/2) Accurately ripped
02 [5dbe7d49|76fb4a85] (0+2/2) Accurately ripped
03 [a5beeb67|d06f5f73] (0+2/2) Accurately ripped
04 [028b0fbc|99faa570] (0+2/2) Accurately ripped
05 [eaf944cb|9b56d65b] (0+2/2) Accurately ripped
06 [b65b3b09|03a5ccd8] (0+2/2) Accurately ripped
07 [0e59766a|585e1ea1] (0+2/2) Accurately ripped
08 [27e5e8fc|7f59d767] (0+2/2) Accurately ripped
09 [7eb9cfa0|0053f0ed] (0+2/2) Accurately ripped
Track Peak [ CRC32 ] [W/O NULL]
-- 93,7 [AE2A795F] [EE97A585]
01 93,7 [97330C10] [E4A544D3]
02 93,7 [D4C5BD08] [673B35B7]
03 93,7 [9670BDCF] [77489710]
04 93,7 [F011B671] [68D0FC8F]
05 93,7 [BF9322C8] [DD3C8337]
06 93,7 [BA2314CD] [8C3938B5]
07 93,7 [CE8F17EB] [2D499E7B]
08 93,7 [3864236D] [0897EE9A]
09 93,7 [9EAD2CD3] [04FEE5A4]
 
AllMusic Review by Janet Rosen
Does it matter that the players, arrangers and half the composers are Japanese? Not when the band is led by Carlos Kanno, formerly fronting the Orchestra de la Luz. Competent, professional big-band salsa and Latin jazz, with a full, round sound, steady rhythms, and enough sizzle to get you dancing.
 
Состав
Carlos Kanno, Michiaki Tanaka, Cormar Kapitza, Gen Ogimi - percussion
Akira Jimbo - drums
Getao Takahashi - bass
Satoru "Salt" Shionoya, Ken Morimura (#9) - piano
Shiro Sasaki, Masanori Suzuki, Keiji Matsushima, Naoki Hirata, Akira Okumura (#9) - trumpet
Hideaki Nakajo, Taisei Aoki - trombone
Kan Nishida - bass trombone
Kazuhiko Kondo, Yoshinari Takegami, Masahiro Fujioka (#9) - alto saxophone
Manteru Nonoda - tenor saxophone
Dairo Miyamoto - bass saxophone
20:40
288
Нет комментариев. Ваш будет первым!