Поиск

(Latin Jazz, Vocal) Claudia Acuna - Rhythm Of Life - 2002, FLAC (image+.cue), lossless

(Latin Jazz, Vocal) Claudia Acuna - Rhythm Of Life - 2002, FLAC (image+.cue), lossless
Треклист:
Claudia Acuña - Rhythm Of Life
Жанр: Latin Jazz, Vocal
Год выпуска диска: 2002
Производитель диска: Россия
Аудио кодек: FLAC
Тип рипа: image+.cue
Битрейт аудио: lossless
Продолжительность: 55:34
Трэклист:
1. My Romance
2. Ay Mariposa
3. A Child Is Born
4. Nature Boy
5. I Fall In Love Too Easily
6. Volver A Los Diecisiete
7. Nowhere To Go
8. Maria Maria
9. More Than You Know
Состав:
Claudia Acuña Arranger, Vocals, Producer
Billy Childs Piano, Arranger, Vocals (bckgr), Producer
Dave Holland Bass
Jeff "Tain" Watts Drums, Vocals (bckgr)
Sara Cutler Harp
Krista Bennion Feeney Violin, Group
Rick Gordon Vocals (bckgr)
Sherman Irby Saxophone
Avi Lebovich Flute, Trombone
Jason Lindner Piano, Arranger, Vocals (bckgr)
Romero Lubambo Guitar
Myron Lutzke Cello, Group
Loma Mar Quartet Strings
Anca Nicolau Violin, Group
Luisito Quintero Percussion
Kim Smith Vocals (bckgr)
Tommy LiPuma Executive Producer
 
EAC Log
Exact Audio Copy V0.99 prebeta 5 from 4. May 2009
EAC extraction logfile from 6. September 2009, 23:28
Claudia Acu�a / Rhytm of Life
Used drive : Optiarc DVD RW AD-7543A Adapter: 2 ID: 0
Read mode : Secure
Utilize accurate stream : Yes
Defeat audio cache : Yes
Make use of C2 pointers : No
Read offset correction : 48
Overread into Lead-In and Lead-Out : No
Fill up missing offset samples with silence : Yes
Delete leading and trailing silent blocks : No
Null samples used in CRC calculations : Yes
Used interface : Native Win32 interface for Win NT & 2000
Used output format : Internal WAV Routines
Sample format : 44.100 Hz; 16 Bit; Stereo
TOC of the extracted CD
Track | Start | Length | Start sector | End sector
---------------------------------------------------------
1 | 0:00.00 | 6:57.27 | 0 | 31301
2 | 6:57.27 | 7:22.50 | 31302 | 64501
3 | 14:20.02 | 4:57.43 | 64502 | 86819
4 | 19:17.45 | 5:59.62 | 86820 | 113806
5 | 25:17.32 | 6:45.15 | 113807 | 144196
6 | 32:02.47 | 6:14.03 | 144197 | 172249
7 | 38:16.50 | 7:11.70 | 172250 | 204644
8 | 45:28.45 | 3:57.27 | 204645 | 222446
9 | 49:25.72 | 6:08.58 | 222447 | 250104
Range status and errors
Selected range
Filename Z:\home\igo\eac\CDImage.wav
Peak level 99.8 %
Range quality 100.0 %
Copy CRC A8D42AA3
Copy OK
No errors occurred
AccurateRip summary
Track 1 cannot be verified as accurate (confidence 2) [98EA0879], AccurateRip returned [74ACF061]
Track 2 cannot be verified as accurate (confidence 2) [62EA644C], AccurateRip returned [237C0351]
Track 3 cannot be verified as accurate (confidence 2) [3AC83988], AccurateRip returned [6FC5CFA5]
Track 4 cannot be verified as accurate (confidence 2) [A514A7D1], AccurateRip returned [7E06A122]
Track 5 cannot be verified as accurate (confidence 2) [F06D4E00], AccurateRip returned [1645D43C]
Track 6 cannot be verified as accurate (confidence 2) [C90610C1], AccurateRip returned [F538A3FB]
Track 7 cannot be verified as accurate (confidence 2) [B9298C48], AccurateRip returned [95F0006C]
Track 8 cannot be verified as accurate (confidence 2) [D7833EF2], AccurateRip returned [38C822CB]
Track 9 cannot be verified as accurate (confidence 2) [966FE365], AccurateRip returned [F2317DA4]
No tracks could be verified as accurate
You may have a different pressing from the one(s) in the database
End of status report
 
auCDtect
auCDtect: CD records authenticity detector, version 0.8.2
Copyright (c) 2004 Oleg Berngardt. All rights reserved.
Copyright (c) 2004 Alexander Djourik. All rights reserved.
------------------------------------------------------------
Processing file: [CDImage.wav]
Detected average hi-boundary frequency: 2.024698e+04 Hz
Detected average lo-boundary frequency: 1.338054e+04 Hz
Detected average hi-cut frequency: 2.170398e+04 Hz
Detected average lo-cut frequency: 1.071544e+04 Hz
Maximum probablis boundary frequency: 2.189100e+04 Hz
Coefficient of nonlinearity of a phase: 2.600307e-01
First order smothness: 3.897311e-01
Second order smothness: 6.578161e-01
------------------------------------------------------------
This track looks like CDDA with probability 100%
------------------------------------------------------------
Final Conclusion:
------------------------------------------------------------
These tracks looks like CDDA with probability 100%
По всем вопросам пишите личное сообщение пользователю M0p94ok.
07:47
201
Нет комментариев. Ваш будет первым!