Поиск

(Bossa Nova, Latin Jazz, Brazilian Jazz) VA (Saludos Amigos) - The Girl From Ipanema - 1992, FLAC (image+.cue), lossless

(Bossa Nova, Latin Jazz, Brazilian Jazz) VA (Saludos Amigos) - The Girl From Ipanema - 1992, FLAC (image+.cue), lossless
Треклист:
VA (Saludos Amigos) - The Girl From Ipanema
Жанр: Bossa Nova, Latin Jazz, Brazilian Jazz
Год выпуска диска: 1992
Производитель диска: EEC
Аудио кодек: FLAC
Тип рипа: image+.cue
Битрейт аудио: lossless
Продолжительность: 52:03
Трэклист:
1. Eu E Voce
2. O Nosso Amor/A Felicidade
3. Maria Vai Com As Outras
4. Ho-Ba-La-La
5. Corcovado
6. Catende
7. Marina
8. Brigas, Nuncas Mais
9. Only Trust Your Heart
10. Das Rosas
11. Saudade Fez Um Samba
12. It Might As Well Be Spring
13. Cantador
14. Se E Tarde Me Perdoa
15. Telephone Song
16. Chove La Fora
17. The Girl From Ipanema
Состав:
Kenny Burrell, Gary Burton, Maria Creuza, Stan Getz, Astrud Gilberto, João Gilberto, Aldo Pagani, Toquinho
Подробнее состав в .cue
 
EAC Log
Exact Audio Copy V0.99 prebeta 5 from 4. May 2009
EAC extraction logfile from 8. September 2009, 0:44
Various / The Girl From Ipanema
Used drive : Optiarc DVD RW AD-7543A Adapter: 2 ID: 0
Read mode : Secure
Utilize accurate stream : Yes
Defeat audio cache : Yes
Make use of C2 pointers : No
Read offset correction : 48
Overread into Lead-In and Lead-Out : No
Fill up missing offset samples with silence : Yes
Delete leading and trailing silent blocks : No
Null samples used in CRC calculations : Yes
Used interface : Native Win32 interface for Win NT & 2000
Used output format : Internal WAV Routines
Sample format : 44.100 Hz; 16 Bit; Stereo
TOC of the extracted CD
Track | Start | Length | Start sector | End sector
---------------------------------------------------------
1 | 0:00.32 | 2:22.40 | 32 | 10721
2 | 2:22.72 | 3:03.43 | 10722 | 24489
3 | 5:26.40 | 4:04.22 | 24490 | 42811
4 | 9:30.62 | 2:14.33 | 42812 | 52894
5 | 11:45.20 | 2:30.15 | 52895 | 64159
6 | 14:15.35 | 5:03.07 | 64160 | 86891
7 | 19:18.42 | 2:25.20 | 86892 | 97786
8 | 21:43.62 | 2:05.18 | 97787 | 107179
9 | 23:49.05 | 4:25.42 | 107180 | 127096
10 | 28:14.47 | 3:16.73 | 127097 | 141869
11 | 31:31.45 | 1:45.25 | 141870 | 149769
12 | 33:16.70 | 4:19.47 | 149770 | 169241
13 | 37:36.42 | 2:34.20 | 169242 | 180811
14 | 40:10.62 | 1:45.70 | 180812 | 188756
15 | 41:56.57 | 1:52.55 | 188757 | 197211
16 | 43:49.37 | 2:12.35 | 197212 | 207146
17 | 46:01.72 | 6:01.03 | 207147 | 234224
Range status and errors
Selected range
Filename Z:\home\igo\eac\CDImage.wav
Peak level 85.0 %
Range quality 100.0 %
Copy CRC 4EC1FD21
Copy OK
No errors occurred
AccurateRip summary
Track 1 accurately ripped (confidence 5) [EFDF201C]
Track 2 accurately ripped (confidence 5) [1055CCB0]
Track 3 accurately ripped (confidence 5) [BCDC3A33]
Track 4 accurately ripped (confidence 5) [4F16D1A1]
Track 5 accurately ripped (confidence 5) [F94075E1]
Track 6 accurately ripped (confidence 5) [251A5BAE]
Track 7 accurately ripped (confidence 5) [93C0A1F1]
Track 8 accurately ripped (confidence 5) [6951AC96]
Track 9 accurately ripped (confidence 5) [D26B813C]
Track 10 accurately ripped (confidence 5) [C5C7E611]
Track 11 accurately ripped (confidence 5) [3CCE2068]
Track 12 accurately ripped (confidence 5) [4BB3A52F]
Track 13 accurately ripped (confidence 5) [3F299A27]
Track 14 accurately ripped (confidence 5) [78A4A9C7]
Track 15 accurately ripped (confidence 5) [A976559C]
Track 16 accurately ripped (confidence 5) [93BBA657]
Track 17 accurately ripped (confidence 5) [0D85138D]
All tracks accurately ripped
End of status report
 
.cue
REM GENRE "Bossa Nova"
REM DATE 1992
REM DISCID F00C3311
REM COMMENT "ExactAudioCopy v0.99pb5"
PERFORMER "Various"
TITLE "The Girl From Ipanema"
FILE "CDImage.wav" WAVE
TRACK 01 AUDIO
TITLE "Astrud Gilberto with Stan Getz Gary Burton and Kenny Burrell - Eu E Voce"
PERFORMER "Astrud Gilberto with Stan Getz Gary Burton and Kenny Burrell - Eu E Voce"
INDEX 00 00:00:00
INDEX 01 00:00:32
TRACK 02 AUDIO
TITLE "A Felicidade"
PERFORMER "Joăo Gilberto - O Nosso Amor"
INDEX 01 02:22:72
TRACK 03 AUDIO
TITLE "Maria Creuza - Maria Vai Com As Outras"
PERFORMER "Maria Creuza - Maria Vai Com As Outras"
INDEX 01 05:26:40
TRACK 04 AUDIO
TITLE "Joăo Gilberto - HÔ-BÁ-LÁ-LÁ"
PERFORMER "Joăo Gilberto - HÔ-BÁ-LÁ-LÁ"
INDEX 01 09:30:62
TRACK 05 AUDIO
TITLE "Astrud Gilberto with Stan Getz Gary Burton and Kenny Burrell - Corcovado"
PERFORMER "Astrud Gilberto with Stan Getz Gary Burton and Kenny Burrell - Corcovado"
INDEX 01 11:45:20
TRACK 06 AUDIO
TITLE "Maria Creuza-Toquinho-Vincius de Moraes - Catendé"
PERFORMER "Maria Creuza-Toquinho-Vincius de Moraes - Catendé"
INDEX 01 14:15:35
TRACK 07 AUDIO
TITLE "Maria Creuza - Marina"
PERFORMER "Maria Creuza - Marina"
INDEX 01 19:18:42
TRACK 08 AUDIO
TITLE "Joăo Gilberto - Brigas, Nunca Mais"
PERFORMER "Joăo Gilberto - Brigas, Nunca Mais"
INDEX 01 21:43:62
TRACK 09 AUDIO
TITLE "Astrud Gilberto with Stan Getz and Gary Burton - Only Trust Your Heart"
PERFORMER "Astrud Gilberto with Stan Getz and Gary Burton - Only Trust Your Heart"
INDEX 01 23:49:05
TRACK 10 AUDIO
TITLE "Maria Creuza - Das Rosas"
PERFORMER "Maria Creuza - Das Rosas"
INDEX 01 28:14:47
TRACK 11 AUDIO
TITLE "Joăo Gilberto - Saudade Fez Um Samba"
PERFORMER "Joăo Gilberto - Saudade Fez Um Samba"
INDEX 01 31:31:45
TRACK 12 AUDIO
TITLE "Astrud Gilberto with Stan Getz Gary Burton and Kenny Burrell - It Might As We..."
PERFORMER "Astrud Gilberto with Stan Getz Gary Burton and Kenny Burrell - It Might As We..."
INDEX 01 33:16:70
TRACK 13 AUDIO
TITLE "Maria Creuza - Cantador"
PERFORMER "Maria Creuza - Cantador"
INDEX 01 37:36:42
TRACK 14 AUDIO
TITLE "Joăo Gilberto - Se É Tarde Me Perdoa"
PERFORMER "Joăo Gilberto - Se É Tarde Me Perdoa"
INDEX 01 40:10:62
TRACK 15 AUDIO
TITLE "Astrud Gilberto with Stan Getz Gary Burton and Kenny Burrell - Telephone Song"
PERFORMER "Astrud Gilberto with Stan Getz Gary Burton and Kenny Burrell - Telephone Song"
INDEX 01 41:56:57
TRACK 16 AUDIO
TITLE "Maria Creuza - Chove La Fora"
PERFORMER "Maria Creuza - Chove La Fora"
INDEX 01 43:49:37
TRACK 17 AUDIO
TITLE "Joăo & Astrud Gilberto with Stan Getz and Gary Burton - The Girl From Ipanema"
PERFORMER "Joăo & Astrud Gilberto with Stan Getz and Gary Burton - The Girl From Ipanema"
INDEX 01 46:01:72
!!! DownBeat (Самый авторитетный джазовый журнал, 12 номеров)[PDF] !!!
08:48
281
Нет комментариев. Ваш будет первым!