Поиск

(Latin Jazz, Post-Bop, Hard Bop, Fusion) Arturo Sandoval & Friends - Jam Miami. A Celebration Of Latin Jazz - 2000, FLAC (image+.cue), lossless

(Latin Jazz, Post-Bop, Hard Bop, Fusion) Arturo Sandoval & Friends - Jam Miami. A Celebration Of Latin Jazz - 2000, FLAC (image+.cue), lossless
Треклист:
Arturo Sandoval & Friends - Jam Miami. A Celebration Of Latin Jazz
Жанр: Latin Jazz, Post-Bop, HArd Bop, Fusion
Год выпуска диска: 2000
Производитель диска: Россия
Аудио кодек: FLAC
Тип рипа: image+.cue
Битрейт аудио: lossless
Продолжительность: 71:15
Трэклист. Он же состав:
1. Guachi Guaro (Soul Sauce)
(Chick Corea, Pete Escovedo, Eddie Resto, Dave Samuels, Poncho Sanchez, Arturo Sandoval)
2. Night in Tunisia
(The Latin Jazz All Stars Big Band, Claudio Roditi, Arturo Sandoval)
3. Ran Kan Kan/Oye Como Va
(Tito Puente)
4. Ican
(Ed Calle, Avishai Cohen, Chick Corea, Pete Escovedo, , Poncho Sanchez, Arturo Sandoval, Steve Turre)
5. Wigwam
(Jeff Ballard, Avishai Cohen, Chick Corea, Steve Davis, Tim Garland, Horacio "El Negro" Hernández, The Latin Jazz All Stars Big Band, Steve Wilson)
6. Ven Morena
(Oscar D'León, Pete Escovedo, The Latin Jazz All Stars Big Band, Poncho Sanchez, Arturo Sandoval, Nestor Torres, Steve Turre, Dave Valentin)
7. Poncho con Su Tambor
(Poncho Sanchez)
8. Bésame Mama
(Oscar D'León, Pete Escovedo, The Latin Jazz All Stars Big Band, Poncho Sanchez, Arturo Sandoval, Dave Valentin, Ray Vega)
9. Mis Abuelos
(Chick Corea, Horacio "El Negro" Hernández, The Latin Jazz All Stars Big Band, Leo Quintero, Arturo Sandoval)
10. Theme from I Love Lucy
(Ed Calle, Chick Corea, Claudio Roditi, Robert Rodriguez, Dave Samuels, Arturo Sandoval, Steve Turre, Dave Valentin, Dave Valentine_
 
EAC Log
Exact Audio Copy V0.99 prebeta 5 from 4. May 2009
EAC extraction logfile from 6. September 2009, 19:24
Arturo Sandoval & Friends / Jam Miami - A Celebration Of Latin Jazz
Used drive : Optiarc DVD RW AD-7543A Adapter: 2 ID: 0
Read mode : Secure
Utilize accurate stream : Yes
Defeat audio cache : Yes
Make use of C2 pointers : No
Read offset correction : 48
Overread into Lead-In and Lead-Out : No
Fill up missing offset samples with silence : Yes
Delete leading and trailing silent blocks : No
Null samples used in CRC calculations : Yes
Used interface : Native Win32 interface for Win NT & 2000
Used output format : Internal WAV Routines
Sample format : 44.100 Hz; 16 Bit; Stereo
TOC of the extracted CD
Track | Start | Length | Start sector | End sector
---------------------------------------------------------
1 | 0:00.00 | 6:37.30 | 0 | 29804
2 | 6:37.30 | 7:08.15 | 29805 | 61919
3 | 13:45.45 | 8:29.00 | 61920 | 100094
4 | 22:14.45 | 7:07.27 | 100095 | 132146
5 | 29:21.72 | 8:45.58 | 132147 | 171579
6 | 38:07.55 | 7:38.55 | 171580 | 205984
7 | 45:46.35 | 2:01.20 | 205985 | 215079
8 | 47:47.55 | 5:31.15 | 215080 | 239919
9 | 53:18.70 | 10:51.30 | 239920 | 288774
10 | 64:10.25 | 7:04.57 | 288775 | 320631
Range status and errors
Selected range
Filename Z:\home\igo\eac\CDImage.wav
Peak level 100.0 %
Range quality 100.0 %
Copy CRC 22F6C8C5
Copy OK
No errors occurred
AccurateRip summary
Track 1 cannot be verified as accurate (confidence 4) [E113AC73], AccurateRip returned [9720A35E]
Track 2 cannot be verified as accurate (confidence 4) [FF83C213], AccurateRip returned [F915F8DB]
Track 3 cannot be verified as accurate (confidence 4) [A3CEA164], AccurateRip returned [56B7FDB8]
Track 4 cannot be verified as accurate (confidence 4) [96D38781], AccurateRip returned [34D6CF6C]
Track 5 cannot be verified as accurate (confidence 4) [D3AD4F46], AccurateRip returned [B23746CE]
Track 6 cannot be verified as accurate (confidence 4) [79FE7664], AccurateRip returned [998DE8FE]
Track 7 cannot be verified as accurate (confidence 4) [3A8E15A7], AccurateRip returned [BD7258EB]
Track 8 cannot be verified as accurate (confidence 4) [FD1557C5], AccurateRip returned [F619D9DA]
Track 9 cannot be verified as accurate (confidence 4) [7A1D5F92], AccurateRip returned [CC696F0E]
Track 10 cannot be verified as accurate (confidence 4) [E90CA42E], AccurateRip returned [D40AAECF]
No tracks could be verified as accurate
You may have a different pressing from the one(s) in the database
End of status report
 
auCDtect
auCDtect: CD records authenticity detector, version 0.8.2
Copyright (c) 2004 Oleg Berngardt. All rights reserved.
Copyright (c) 2004 Alexander Djourik. All rights reserved.
------------------------------------------------------------
Processing file: [CDImage.wav]
Detected average hi-boundary frequency: 2.025437e+04 Hz
Detected average lo-boundary frequency: 1.331230e+04 Hz
Detected average hi-cut frequency: 2.184082e+04 Hz
Detected average lo-cut frequency: 1.309860e+04 Hz
Maximum probablis boundary frequency: 2.189100e+04 Hz
Coefficient of nonlinearity of a phase: 4.891233e-02
First order smothness: 4.866891e-01
Second order smothness: 5.702768e-01
------------------------------------------------------------
This track looks like CDDA with probability 100%
------------------------------------------------------------
Final Conclusion:
------------------------------------------------------------
These tracks looks like CDDA with probability 100%
По всем вопросам пишите личное сообщение пользователю M0p94ok.
07:49
208
Нет комментариев. Ваш будет первым!