Поиск

(World Fusion) Kip Hanrahan - Exotica - 1993, FLAC (tracks+.cue), lossless

(World Fusion) Kip Hanrahan - Exotica - 1993, FLAC (tracks+.cue), lossless
Треклист:
Kip Hanrahan - Exotica
Жанр: World Fusion
Год выпуска диска: 1993
Производитель диска: U.S.A.
Аудио кодек: FLAC
Тип рипа: tracks+.cue
Битрейт аудио: lossless
Продолжительность: 58:15
Трэклист:
1 .You Can Tell A Guy By His Anger (7:45)
2 .The Last Song (3:34)
3 .As In Angola (Red Star In The Morning Sky) (3:35)
4 .Red Star (6:53)
5 .You Can Tell Someone Who'll Never Fullfill Their Potential By The Way They Measure The Evening (1:18)
6. What We Learned That Night In Vera Cruz And How We Applied It (2:36)
7 .G-d Is Great (10:34)
8 .As In The Bronx (You Can Tell Where Someone Comes From By What They Laugh At) (4:27)
9 .You Can Tell A Moment Of Clarity By The Digital Trace It Leaves (6:01)
10 .As In The Red Morning (8:00)
11 .The Last Song On The Album (3:25)
Доп. информация:
Label: American Clavé
Catalog#: AMCL 1027 2
Rip с фирменного CD из собственной коллекции
 
Log file:
Отчёт EAC об извлечении, выполненном 27. июля 2009, 11:07 для диска:
Kip Hanrahan / Exotica
Дисковод: MATSHITABD-MLT UJ-210S Adapter: 0 ID: 0
Режим чтения: Достоверный (C2: нет, Точный поток: да, Отключение кэша: да)
Коррекция смещения при чтении: 102
Способность читать области Lead-in и Lead-out : Нет
Выходной формат: Внутренние WAV-операции
44.100 Гц; 16 бит; стерео
Другие параметры:
Заполнение пропущенных сэмплов тишиной : Да
Удаление блоков с тишиной в начале и конце : Нет
Встроенный Win32-интерфейс для Win NT/2000
Трек 1
Имя файла J:\temp\Kip Hanrahan - Exotica\01. You Can Tell a Guy by His Anger.wav
Длина предзазора 0:00:02.00
Пиковый уровень 100.0 %
Качество трека 100.0 %
CRC теста C64BC683
CRC копии C64BC683
Копирование... OK
Трек 2
Имя файла J:\temp\Kip Hanrahan - Exotica\02. The Last Song.wav
Длина предзазора 0:00:00.16
Пиковый уровень 99.9 %
Качество трека 100.0 %
CRC теста DB0E47B3
CRC копии DB0E47B3
Копирование... OK
Трек 3
Имя файла J:\temp\Kip Hanrahan - Exotica\03. As in Angola (Red Star in the Morning Sky).wav
Длина предзазора 0:00:00.18
Пиковый уровень 100.0 %
Качество трека 100.0 %
CRC теста 91BB42AA
CRC копии 91BB42AA
Копирование... OK
Трек 4
Имя файла J:\temp\Kip Hanrahan - Exotica\04. Red Star.wav
Длина предзазора 0:00:00.18
Пиковый уровень 94.3 %
Качество трека 100.0 %
CRC теста 4AADCC3C
CRC копии 4AADCC3C
Копирование... OK
Трек 5
Имя файла J:\temp\Kip Hanrahan - Exotica\05. You Can Tell Someone Who'll Never Fulfill Their Potential by the way They Measure the Evening.wav
Длина предзазора 0:00:00.18
Пиковый уровень 99.1 %
Качество трека 100.0 %
CRC теста 251A4974
CRC копии 251A4974
Копирование... OK
Трек 6
Имя файла J:\temp\Kip Hanrahan - Exotica\06. What We Learned That Night in Vera Cruz and How We Applied It.wav
Длина предзазора 0:00:00.18
Пиковый уровень 99.0 %
Качество трека 100.0 %
CRC теста 7031E987
CRC копии 7031E987
Копирование... OK
Трек 7
Имя файла J:\temp\Kip Hanrahan - Exotica\07. G-d Is Great.wav
Длина предзазора 0:00:00.18
Пиковый уровень 100.0 %
Качество трека 99.9 %
CRC теста 68E5F90A
CRC копии 68E5F90A
Копирование... OK
Трек 8
Имя файла J:\temp\Kip Hanrahan - Exotica\08. As in the Bronx (You Can Tell Where Someone Comes from by what They Laugh at).wav
Длина предзазора 0:00:00.18
Пиковый уровень 100.0 %
Качество трека 100.0 %
CRC теста BB904F4D
CRC копии BB904F4D
Копирование... OK
Трек 9
Имя файла J:\temp\Kip Hanrahan - Exotica\09. You Can Tell a Moment of Clarity by the Digital Traces it Leaves.wav
Длина предзазора 0:00:04.66
Пиковый уровень 99.9 %
Качество трека 100.0 %
CRC теста ED24A686
CRC копии ED24A686
Копирование... OK
Трек 10
Имя файла J:\temp\Kip Hanrahan - Exotica\10. As in the Red Morning.wav
Длина предзазора 0:00:00.68
Пиковый уровень 90.1 %
Качество трека 100.0 %
CRC теста 7A83DB19
CRC копии 7A83DB19
Копирование... OK
Трек 11
Имя файла J:\temp\Kip Hanrahan - Exotica\11. The Last Song on the Album.wav
Длина предзазора 0:00:05.48
Пиковый уровень 89.3 %
Качество трека 100.0 %
CRC теста F3F98548
CRC копии F3F98548
Копирование... OK
Ошибок не произошло
Конец отчёта
allmusic.com
Download available for power users only.
07:49
295
Нет комментариев. Ваш будет первым!