Поиск

(Jazz/Bossa Nova) VA - Bossa Jazz, Salt Song - 2004, FLAC (image+.cue), lossless

(Jazz/Bossa Nova) VA - Bossa Jazz, Salt Song - 2004, FLAC (image+.cue), lossless
Треклист:
Various Artists - Bossa Jazz, Salt Song
Жанр: Jazz/Bossa Nova
Год выпуска диска: 2004
Производитель диска: Dubas Música (Universal Music Ltda.) - 325912006535 - Brazil
Аудио кодек: FLAC
Тип рипа: image+.cue
Битрейт аудио: lossless
Продолжительность: 42:05
Трэклист:
1. Canção Do Sal (Salt Song) - Stanley Turrentine
2. Suk Cha - Moacir Santos
3. Triste - Oscar Peterson
4. Takatanga - Antonio Carlos Jobim
5. Manhã De Carnaval (The Theme From Black Orpheus) - Paul Desmond
6. Insensatez (How Insensitive) - Wes Montgomery
7. Aos Pés Da Cruz - Miles Davis
8. Meditação (Meditation) - Dexter Gordon
Доп. информация:
 
Info
Back Cover Notes
Brazilian Portuguese:
Bossa Jazz / Salt Song convida você a viajar por uma seleção de sofisticados temas brasileiros em sublimes interpretações instrumentais de grandes nomes do jazz e da bossa nova.
English:
While listening to these sublime instrumental masterpieces we are moved to a place that we now want to share with you. Bossa Jazz / Salt Song is a selection of Brazilian tunes in a jazz mood by all´time masters of modern music. A true get-away to a lost paradise. Let the music take you there.
French:
En écountant ces sublimes chefs d'oeuvre instrumentaux, nous sommes deplacés vers un lieu que maintenant nous voulons partagé avec vous. Bossa Jazz / Salt Song, une seléction de musique brésilienne jouée dans un climat jazz par des maîtres du moderne instrumental. Une ascension vertigineuse vers le paradis perdu. Laissez la musique vous y emmener.
 
EAC Log
Exact Audio Copy V0.99 prebeta 5 from 4. May 2009
EAC extraction logfile from 6. September 2009, 21:29
Various / Bossa Jazz: Salt Song
Used drive : HL-DT-STDVDRAM GH20NS15 Adapter: 0 ID: 0
Read mode : Secure
Utilize accurate stream : Yes
Defeat audio cache : Yes
Make use of C2 pointers : No
Read offset correction : 667
Overread into Lead-In and Lead-Out : No
Fill up missing offset samples with silence : Yes
Delete leading and trailing silent blocks : No
Null samples used in CRC calculations : Yes
Used interface : Installed external ASPI interface
Used output format : User Defined Encoder
Selected bitrate : 1024 kBit/s
Quality : High
Add ID3 tag : No
Command line compressor : C:\Program Files\Exact Audio Copy\Flac\flac.exe
Additional command line options : -8 -A tukey(0.25) -A gauss(0.1875) -b 4096 -V -T "artist=%a" -T "title=%t" -T "album=%g" -T "date=%y" -T "tracknumber=%n" -T "genre=%m" %s --sector-align
TOC of the extracted CD
Track | Start | Length | Start sector | End sector
---------------------------------------------------------
1 | 0:00.00 | 7:15.01 | 0 | 32625
2 | 7:15.01 | 4:11.01 | 32626 | 51451
3 | 11:26.02 | 5:20.15 | 51452 | 75466
4 | 16:46.17 | 4:31.29 | 75467 | 95820
5 | 21:17.46 | 4:13.20 | 95821 | 114815
6 | 25:30.66 | 3:48.43 | 114816 | 131958
7 | 29:19.34 | 4:18.43 | 131959 | 151351
8 | 33:38.02 | 8:27.49 | 151352 | 189425
Range status and errors
Selected range
Filename D:\Torrents.ru 2\Bossa Jazz\Bossa Jazz - Salt Song\VA - Bossa Jazz, Salt Song.wav
Peak level 100.0 %
Range quality 100.0 %
Test CRC E655AF6A
Copy CRC E655AF6A
Copy OK
No errors occurred
AccurateRip summary
Track 1 not present in database
Track 2 not present in database
Track 3 not present in database
Track 4 not present in database
Track 5 not present in database
Track 6 not present in database
Track 7 not present in database
Track 8 not present in database
None of the tracks are present in the AccurateRip database
End of status report
 
Audiochecker
AUDIOCHECKER v2.0 beta (build 457) - by Dester - opdester@freemail.hu
~~~~~~~~~~~~~~~~~~~~~~~~~~~~~~~~~~
-=== DO NOT EDIT THIS FILE! ===-
Path: ...\Bossa Jazz - Salt Song
1 -=- VA - Bossa Jazz, Salt Song.flac -=- CDDA (100%)
16994212
 
Tau Analyzer


07:47
276
Нет комментариев. Ваш будет первым!