Поиск

(Latin Jazz) VA - Latin Jazz for Lovers (DCC) - 1999, APE (image+.cue), lossless

(Latin Jazz) VA - Latin Jazz for Lovers (DCC) - 1999, APE (image+.cue), lossless
Треклист:
VA - Latin Jazz for Lovers
Жанр: Latin Jazz
Страна-производитель диска: США
Год издания: 1999
Издатель (лейбл): DCC Compact Classics
Номер по каталогу: DJZ-702
Аудиокодек: APE (*.ape)
Тип рипа: image+.cue
Битрейт аудио: lossless
Продолжительность: 38:11
Источник (релизер): LAI671 (netlab)
Наличие сканов в содержимом раздачи: да
Треклист:
01. Gary McFarland - O Morro (3:40)
02. Gabor Szabo - Galatea's Guitar (5:43)
03. Gary McFarland - Flamingo (3:05)
04. Armando Peraza - Al Bajar el Sol (3:18)
05. Gabor Szabo - Ferris Wheel (5:33)
06. Gabor Szabo - The Look of Love (3:18)
07. Cal Tjader - Never My Love (2:56)
08. Cal Tjader - Nica's Dream (5:03)
09. Cal Tjader - Eye of the Devil (2:28)
10. Cal Tjader - Morning Mist (3:07)
 
Лог создания рипа
Отчёт EAC об извлечении, выполненном 11. августа 2006, 16:39 для диска:
Various Artists / Latin Jazz for Lovers
Дисковод: PIONEER DVD-RW DVR-109 Adapter: 0 ID: 0
Режим чтения: Достоверный (C2: нет, Точный поток: да, Отключение кэша: да)
Коррекция смещения при чтении: 48
Способность читать области Lead-in и Lead-out : Нет
Выходной формат: Внутренние WAV-операции
44.100 Гц; 16 бит; стерео
Другие параметры:
Заполнение пропущенных сэмплов тишиной : Да
Удаление блоков с тишиной в начале и конце : Нет
Установленный внешний ASPI-интерфейс
Характеристики диапазона извлечения и сообщения об ошибках
Выбранный диапазон
Имя файла D:\New Folder (2)\Раздачи\Various Artists - Latin Jazz for Lovers.wav
Пиковый уровень 100.0 %
Качество диапазона 99.9 %
CRC D6064437
Копирование... OK
Ошибок не произошло
Конец отчёта
 
Содержание индексной карты (.CUE)
REM GENRE Jazz
REM DISCID 8308F30A
REM COMMENT "ExactAudioCopy v0.95b4"
PERFORMER "Various"
TITLE "Latin Jazz for Lovers"
FILE "VA - Latin Jazz for Lovers.wav" WAVE
TRACK 01 AUDIO
TITLE "O Morro"
PERFORMER "Gary McFarland"
INDEX 01 00:00:00
TRACK 02 AUDIO
TITLE "Galatea's Guitar"
PERFORMER "Gabor Szabo"
INDEX 01 03:40:02
TRACK 03 AUDIO
TITLE "Flamingo"
PERFORMER "Gary McFarland"
INDEX 01 09:23:20
TRACK 04 AUDIO
TITLE "Al Bajar el Sol"
PERFORMER "Armando Peraza"
INDEX 01 12:28:50
TRACK 05 AUDIO
TITLE "Ferris Wheel"
PERFORMER "Gabor Szabo"
INDEX 01 15:46:47
TRACK 06 AUDIO
TITLE "The Look of Love"
PERFORMER "Gabor Szabo"
INDEX 01 21:19:62
TRACK 07 AUDIO
TITLE "Never My Love"
PERFORMER "Cal Tjader"
INDEX 01 24:38:02
TRACK 08 AUDIO
TITLE "Nica's Dream"
PERFORMER "Cal Tjader"
INDEX 01 27:33:50
TRACK 09 AUDIO
TITLE "Eye of the Devil"
PERFORMER "Cal Tjader"
INDEX 01 32:36:42
TRACK 10 AUDIO
TITLE "Morning Mist"
PERFORMER "Cal Tjader"
INDEX 01 35:04:12
 
Review by Alex Henderson
In an ideal world, a compilation titled Latin Jazz for Lovers would have offered the most essential boleros and Afro-Cuban jazz ballads that Dizzy Gillespie, Machito, Cal Tjader, Tito Puente, Mongo Santamaria, Irakere, and Poncho Sanchez ever recorded. But this compilation (which DCC assembled in 1999) isn't that stellar a release, although it does contain some enjoyable, if less than essential, material that Tjader provided in the 1960s (including "Never My Love" and a live performance of Horace Silver's "Nica's Dream"). Other 1960s recordings on Latin Jazz for Lovers are by Gary McFarland ("O Morro," "Flamingo"), Armando Peraza ("Al Bajar El Sol") and Hungarian guitarist Gabor Szabo ("Galatea's Guitar," "Ferris Wheel"). Most of the time, Latin Jazz for Lovers lives up to its title -- this is primarily a compilation of soft, romantic jazz that has either an Afro-Cuban or Brazilian influence. However, Szabo's interesting version of the Burt Bacharach/Hal David favorite "The Look of Love" has more an East European flavor, which makes it seem out of place on a Latin jazz release. But because Szabo is so creative, one is inclined to be somewhat forgiving. What isn't so easy to forgive is DCC's failure to provide any recording dates, personnel, or liner notes -- the label should have known better, and this type of laziness is simply inexcusable. But DCC's laziness doesn't make the recordings any less enjoyable. Latin Jazz for Lovers is far from the definitive compilation of romantic Latin jazz, but the material certainly isn't bad either.
В идеальном мире, собрание названное Latin Jazz for Lovers предложило бы самые значимые и яркие композиции, которые когда-либо записывали Dizzy Gillespie, Machito, Cal Tjader, Tito Puente, Mongo Santamaria, Irakere, и Poncho Sanchez. Но это собрание (которое компания DCC составила в 1999), напротив, не звездный выпуск, хотя включает в себя замечательный материал, записанный Cal Tjader-ом в 60х ("Never My Love" и живое исполнение Horace Silver "Nica's Dream"). Из других записей 60х следует упомянуть McFarland ("O Morro," "Flamingo"), Armando Peraza ("Al Bajar El Sol") и венгерского гитариста Gabor Szabo ("Galatea's Guitar," "Ferris Wheel").
В целом Latin Jazz for Lovers вполне оправдывает свое название – это сборник нежных, романтических композиций, в которых явно прослеживается афро-кубинское или бразильское влияние. Latin Jazz for Lovers ни в какой степени не претендует на звание окончательного и полного собрания романтического латинского джаза, но представленный материал очень не плох и доставляет истинное наслаждение от прослушивания.
-- Phisik
 
Состав
01. O Morro - Gary McFarland
(from DOES THE SUN REALLY SHINE ON THE MOON? - Gary McFarland & Co.
A & R Recording Studio, New York City: January 29-31, 1968
Marvin Stamm (flhn); Jerome Richardson (ss,f); Warren Bernhardt (org); Sam Brown (g); Richard Davis (b); Chuck Rainey (el-b); Donald McDonald or Grady Tate (d); Gary McFarland (vib,arr).)
02. Galatea's Guitar - Gabor Szabo
(from DREAMS- Gabor Szabo
New York City: August 22, 1968
Tony Miranda, Ray Alonge, Brooks Tillotson (fhr); Gary McFarland (p,arr); Julius Schacter (vln); George Ricci (cello).)
03. Flamingo - Gary McFarland
(from DOES THE SUN REALLY SHINE ON THE MOON?)
04. Al Bajar El Sol - Armando Peraza
(from WILD THING - Armando Peraza
Century Sound; New York City: June 24 & 25, 1968
collective personnel inc. Garnett Brown (tb); Johnny Pacheco (f); Sadao Watanabe (f,as); Sol Schlinger (bar); Mike Abene (p.el-p,arr); Chic(k) Corea (p); Chuck Rainey (el-b); Bobby Rodriguez (b); Donald MacDonald (d); Armando Peraza (cga,bgo); Tommy Lopez, Cal Tjader (perc); Gary McFarland (arr).)
05. Ferris Wheel - Gabor Szabo
(from DREAMS)
06. The Look Of Love - Gabor Szabo
(from BACCHANAL - Gabor Szabo
Western Recording Studios; Los Angeles, California: February 9, 1968
Gabor Szabo, Jim (Jimmy) Stewart (g); Hal Gordon (per); Jim Keltner (d); Louis Kabok (b).)
07. Never My Love - Cal Tjader
(from SOLAR HEAT - Cal Tjader
New York City: January 15, 1968
Joao Donato (org); Mike Abene (el-p, harpsichord); Bobby Rodriguez or Chuck Rainey (b); Cal Tjader (vib); Gary McFarland (vib,arr); Ray Barretto, Orestes Vilato (perc).)
08. Nica's Dream - Cal Tjader
(from CAL TJADER PLUGS IN - Cal Tjader
Live at the Lighthouse Hermosa Beach, CA: February 20-21, 1969
Al Zulaica (el-p); Jim McCabe (el-b); Johnny Rae (perc); Cal Tjader (vib); Armando Peraza (cga).)
09. Eye Of The Devil - Cal Tjader
(from SOLAR HEAT)
10. Morning Mist - Cal Tjader
(from CAL TJADER PLUGS IN)
Взамен ушедшего в архив.
03:58
354
Нет комментариев. Ваш будет первым!