Поиск

(Fusion, Ethnic Jazz, Vocal Jazz, World) Carmen Souza Duo (feat. Theo Pas'cal ) - London Acoustic Set - 2012, FLAC (tracks+.cue), lossless

(Fusion, Ethnic Jazz, Vocal Jazz, World) Carmen Souza Duo (feat. Theo Pas'cal ) - London Acoustic Set - 2012, FLAC (tracks+.cue), lossless
Треклист:
Carmen Souza Duo / London Acoustic Set
Жанр: Fusion, Ethnic Jazz, Vocal Jazz, World
Год издания: 2012
Издатель (лейбл): 1-2-3-4 GO
Страна: Cape Verde/Portugal
Аудиокодек: FLAC (*.flac)
Тип рипа: tracks+.cue
Битрейт аудио: lossless
Продолжительность: 0:59:36
Источник (релизер): zootman12
Наличие сканов в содержимом раздачи: нет
Треклист:
01. Dos Eternidade (4:41)
02. Ind'feso (4:12)
03. Magica ca tem (5:45)
04. Confianca (4:17)
05. Song for my father (4:56)
06. Mar na coracon (5:16)
07. Sous le ciel de Paris (4:07)
08. M'sta li ma bo (5:08)
09. Mara Marga (3:22)
10. Tente Midj (5:26)
11. Verdade (5:18)
12. Sodade (7:08)
 
EAC log
Exact Audio Copy V1.0 beta 2 from 29. April 2011
EAC extraction logfile from 24. February 2012, 19:48
Carmen Souza Duo / London Acoustic Set
Used drive : PLEXTOR DVDR PX-L890SA Adapter: 2 ID: 1
Read mode : Secure
Utilize accurate stream : Yes
Defeat audio cache : Yes
Make use of C2 pointers : No
Read offset correction : 6
Overread into Lead-In and Lead-Out : No
Fill up missing offset samples with silence : Yes
Delete leading and trailing silent blocks : No
Null samples used in CRC calculations : Yes
Used interface : Native Win32 interface for Win NT & 2000
Gap handling : Appended to previous track
Used output format : User Defined Encoder
Selected bitrate : 256 kBit/s
Quality : High
Add ID3 tag : No
Command line compressor : C:\Program Files (x86)\Exact Audio Copy\FLAC\FLAC.EXE
Additional command line options : -8 -V -T "ARTIST=%artist%" -T "TITLE=%title%" -T "ALBUM=%albumtitle%" -T "DATE=%year%" -T "TRACKNUMBER=%tracknr%" -T "TOTALTRACKS=%numtracks%" -T "GENRE=%genre%" -T "ALBUMARTIST=%albumartist%" -T "ALBUM ARTIST=%albumartist%
TOC of the extracted CD
Track | Start | Length | Start sector | End sector
---------------------------------------------------------
1 | 0:00.00 | 4:41.01 | 0 | 21075
2 | 4:41.01 | 4:11.68 | 21076 | 39968
3 | 8:52.69 | 5:44.58 | 39969 | 65826
4 | 14:37.52 | 4:17.29 | 65827 | 85130
5 | 18:55.06 | 4:56.33 | 85131 | 107363
6 | 23:51.39 | 5:16.01 | 107364 | 131064
7 | 29:07.40 | 4:07.33 | 131065 | 149622
8 | 33:14.73 | 5:08.17 | 149623 | 172739
9 | 38:23.15 | 3:21.57 | 172740 | 187871
10 | 41:44.72 | 5:25.40 | 187872 | 212286
11 | 47:10.37 | 5:18.13 | 212287 | 236149
12 | 52:28.50 | 7:07.44 | 236150 | 268218
Track 1
Filename F:\Flac Rips\01 - Dos Eternidade.wav
Pre-gap length 0:00:02.00
Peak level 98.8 %
Extraction speed 3.6 X
Track quality 100.0 %
Test CRC F3CB2E64
Copy CRC F3CB2E64
Track not present in AccurateRip database
Copy OK
Track 2
Filename F:\Flac Rips\02 - Ind'feso.wav
Pre-gap length 0:00:02.00
Peak level 98.8 %
Extraction speed 4.0 X
Track quality 100.0 %
Test CRC 7EF95B03
Copy CRC 7EF95B03
Track not present in AccurateRip database
Copy OK
Track 3
Filename F:\Flac Rips\03 - Magica ca tem.wav
Pre-gap length 0:00:03.00
Peak level 98.8 %
Extraction speed 4.6 X
Track quality 100.0 %
Test CRC C1158699
Copy CRC C1158699
Track not present in AccurateRip database
Copy OK
Track 4
Filename F:\Flac Rips\04 - Confianca.wav
Pre-gap length 0:00:02.00
Peak level 98.8 %
Extraction speed 4.8 X
Track quality 100.0 %
Test CRC 2D8DE5E6
Copy CRC 2D8DE5E6
Track not present in AccurateRip database
Copy OK
Track 5
Filename F:\Flac Rips\05 - Song for my father.wav
Pre-gap length 0:00:03.00
Peak level 98.8 %
Extraction speed 4.3 X
Track quality 99.9 %
Test CRC 88DCFA0E
Copy CRC 88DCFA0E
Track not present in AccurateRip database
Copy OK
Track 6
Filename F:\Flac Rips\06 - Mar na coracon.wav
Pre-gap length 0:00:02.00
Peak level 98.8 %
Extraction speed 5.6 X
Track quality 100.0 %
Test CRC FC2A677E
Copy CRC FC2A677E
Track not present in AccurateRip database
Copy OK
Track 7
Filename F:\Flac Rips\07 - Sous le ciel de Paris.wav
Pre-gap length 0:00:02.00
Peak level 98.8 %
Extraction speed 5.7 X
Track quality 100.0 %
Test CRC AF3C547B
Copy CRC AF3C547B
Track not present in AccurateRip database
Copy OK
Track 8
Filename F:\Flac Rips\08 - M'sta li ma bo.wav
Pre-gap length 0:00:02.00
Peak level 98.8 %
Extraction speed 6.1 X
Track quality 100.0 %
Test CRC CD9AAFBD
Copy CRC CD9AAFBD
Track not present in AccurateRip database
Copy OK
Track 9
Filename F:\Flac Rips\09 - Mara Marga.wav
Pre-gap length 0:00:02.00
Peak level 98.8 %
Extraction speed 6.0 X
Track quality 100.0 %
Test CRC 228EBDA8
Copy CRC 228EBDA8
Track not present in AccurateRip database
Copy OK
Track 10
Filename F:\Flac Rips\10 - Tente Midj.wav
Pre-gap length 0:00:02.00
Peak level 98.8 %
Extraction speed 6.7 X
Track quality 100.0 %
Test CRC 567F52EE
Copy CRC 567F52EE
Track not present in AccurateRip database
Copy OK
Track 11
Filename F:\Flac Rips\11 - Verdade.wav
Pre-gap length 0:00:01.74
Peak level 98.8 %
Extraction speed 7.0 X
Track quality 100.0 %
Test CRC B3986233
Copy CRC B3986233
Track not present in AccurateRip database
Copy OK
Track 12
Filename F:\Flac Rips\12 - Sodade.wav
Peak level 98.8 %
Extraction speed 6.4 X
Track quality 99.9 %
Test CRC 6C8D0ADC
Copy CRC 6C8D0ADC
Track not present in AccurateRip database
Copy OK
None of the tracks are present in the AccurateRip database
No errors occurred
End of status report
==== Log checksum 2F00006315D197CBA2A3DE97E64566455E7A4F26F959D76BB44CF742ED02B732 ====
 
auCDtect's log
-----------------------
DON'T MODIFY THIS FILE
-----------------------
PERFORMER: auCDtect Task Manager, ver. 1.5.1RC3 build 1.5.1.4
Copyright (c) 2008-2010 y-soft. All rights reserved
http://y-soft.org
ANALYZER: auCDtect: CD records authenticity detector, version 0.8.2
Copyright (c) 2004 Oleg Berngardt. All rights reserved.
Copyright (c) 2004 Alexander Djourik. All rights reserved.
FILE: 12 - Sodade.flac
Size: 39948386 Hash: 4EDFC9587943DE410ACE873F1677D0FF Accuracy: -m0
Conclusion: CDDA 100%
Signature: A9621BA9A0D9E07AE95624EBCE9454F0FEFC8A1A
FILE: 11 - Verdade.flac
Size: 27625612 Hash: 507AA109FE3AA6570EDBD4381EF7597B Accuracy: -m0
Conclusion: CDDA 100%
Signature: 3415A366FE4CFC6A99B6424D37CE710F93FEE185
FILE: 10 - Tente Midj.flac
Size: 30441674 Hash: 7245340D50ADDF2EC21859E82929EC64 Accuracy: -m0
Conclusion: CDDA 100%
Signature: 743110FF419EED2BB2F6AFD7010215E9601C4783
FILE: 09 - Mara Marga.flac
Size: 15949348 Hash: FEC4799EE5234642297D925366BE7CB7 Accuracy: -m0
Conclusion: CDDA 100%
Signature: 70484C495C1DB051621C00A475C35CE556727412
FILE: 08 - M'sta li ma bo.flac
Size: 26776773 Hash: 9CA8BBF2D3C353AFDA357D9BBA121E56 Accuracy: -m0
Conclusion: CDDA 100%
Signature: 483AE0D6E182241DAC01BA9369A04D7BAEBC6E3C
FILE: 07 - Sous le ciel de Paris.flac
Size: 21549046 Hash: 75E31227DE787EC30592B62FD223F35E Accuracy: -m0
Conclusion: CDDA 100%
Signature: 07FA620364B99FA073E39AFAB80D18B555DB6C16
FILE: 06 - Mar na coracon.flac
Size: 26043660 Hash: 413AE3C27F761588585A2122CDA4ECFE Accuracy: -m0
Conclusion: CDDA 100%
Signature: 8B7EA4F8288D541F50A3C87EF84C099AF9B0F95B
FILE: 05 - Song for my father.flac
Size: 26306115 Hash: A99950A8CD433A434FB80BA9984C4C40 Accuracy: -m0
Conclusion: CDDA 100%
Signature: A8FF9329EEF2F5B70B279A8F629C92535F490A1C
FILE: 04 - Confianca.flac
Size: 22758680 Hash: 7672C458F6782BDD9A709BFAB744459A Accuracy: -m0
Conclusion: CDDA 99%
Signature: 676E4608D8DE67E553AF0973130FF3628E6C8F12
FILE: 03 - Magica ca tem.flac
Size: 30651702 Hash: E0E93E65224F845FD5727E41D23F435E Accuracy: -m0
Conclusion: CDDA 100%
Signature: A580915F77B82C578A2F20677ACF265DC48DB308
FILE: 02 - Ind'feso.flac
Size: 22436744 Hash: 7BD7B6FF5753529A904E546BDEA9C3CE Accuracy: -m0
Conclusion: CDDA 100%
Signature: 9CCF79438D4783E8064F077AFDE6873ED30B6D86
FILE: 01 - Dos Eternidade.flac
Size: 24483325 Hash: 01D8968C84A661C4E32A662594EA9F35 Accuracy: -m0
Conclusion: CDDA 100%
Signature: 65EC1E9D7D3A77AECA02D2F4018841997FB3D369
 
.cue
REM DISCID A70DF80C
REM COMMENT "ExactAudioCopy v1.0b2"
PERFORMER "Carmen Souza Duo"
TITLE "London Acoustic Set"
FILE "01 - Dos Eternidade.wav" WAVE
TRACK 01 AUDIO
TITLE "Dos Eternidade"
PERFORMER "Carmen Souza Duo"
INDEX 01 00:00:00
TRACK 02 AUDIO
TITLE "Ind'feso"
PERFORMER "Carmen Souza Duo"
INDEX 00 04:39:01
FILE "02 - Ind'feso.wav" WAVE
INDEX 01 00:00:00
TRACK 03 AUDIO
TITLE "Magica ca tem"
PERFORMER "Carmen Souza Duo"
INDEX 00 04:08:68
FILE "03 - Magica ca tem.wav" WAVE
INDEX 01 00:00:00
TRACK 04 AUDIO
TITLE "Confianca"
PERFORMER "Carmen Souza Duo"
INDEX 00 05:42:58
FILE "04 - Confianca.wav" WAVE
INDEX 01 00:00:00
TRACK 05 AUDIO
TITLE "Song for my father"
PERFORMER "Carmen Souza Duo"
INDEX 00 04:14:29
FILE "05 - Song for my father.wav" WAVE
INDEX 01 00:00:00
TRACK 06 AUDIO
TITLE "Mar na coracon"
PERFORMER "Carmen Souza Duo"
INDEX 00 04:54:33
FILE "06 - Mar na coracon.wav" WAVE
INDEX 01 00:00:00
TRACK 07 AUDIO
TITLE "Sous le ciel de Paris"
PERFORMER "Carmen Souza Duo"
INDEX 00 05:14:01
FILE "07 - Sous le ciel de Paris.wav" WAVE
INDEX 01 00:00:00
TRACK 08 AUDIO
TITLE "M'sta li ma bo"
PERFORMER "Carmen Souza Duo"
INDEX 00 04:05:33
FILE "08 - M'sta li ma bo.wav" WAVE
INDEX 01 00:00:00
TRACK 09 AUDIO
TITLE "Mara Marga"
PERFORMER "Carmen Souza Duo"
INDEX 00 05:06:17
FILE "09 - Mara Marga.wav" WAVE
INDEX 01 00:00:00
TRACK 10 AUDIO
TITLE "Tente Midj"
PERFORMER "Carmen Souza Duo"
INDEX 00 03:19:57
FILE "10 - Tente Midj.wav" WAVE
INDEX 01 00:00:00
TRACK 11 AUDIO
TITLE "Verdade"
PERFORMER "Carmen Souza Duo"
INDEX 00 05:23:41
FILE "11 - Verdade.wav" WAVE
INDEX 01 00:00:00
FILE "12 - Sodade.wav" WAVE
TRACK 12 AUDIO
TITLE "Sodade"
PERFORMER "Carmen Souza Duo"
INDEX 01 00:00:00
 
Об альбоме (english)
Talented and inexhaustible, Luso-Cape Verdean singer/songwriter, Carmen Souza, releases a Duo CD, "London acoustic set" in November 2011, featuring Theo Pas'cal and, German painter, Jürgen Born on the CD artwork.
"London acoustic set " is certainly a special way to celebrate a cycle of 10 years of continuous work with Theo Pas'cal: mentor, friend, producer, road and composition companion.
Is a unique register of one of her rare concerts in Duo recorded in November 2010, at Green Note, the prestigious World Music Club in London. Also includes 2 songs recorded at the Liverpool Philharmonic hall in 2010.
This raw performance, is truly faithful to the birth of each song, putting the spotlight on Carmen Souza's unique, expressive and captivating voice and also her complicity with the great musician and composer, Theo Pas'cal, in a journey where both are able to create their own musical language and form of expression.
All the songs presented here were originally composed as a duo based on the voice, bass and guitar.
Carmen Souza, plays acoustic guitar and Theo Pas'cal divides himself between the acoustic bass and percussion.
"Here we go back to the beginning of our composition process where the songs appear naked but already soulful in its spirit…we felt the need to listen and play our songs in it's first form." Carmen Souza says.
Combining the influence of her Cape Verdean roots, with her other passion, jazz, this album includes 12 live new interpretations of songs previously included on her latest's CDs: Ess ê nha Cape Verde (2005), Truth (2008), Protegid (2010).
Besides the original repertoire we can find versions of "Sous le ciel de Paris" immortalized by the voice of Edith Piaf, "Sodade" and "Song for my father".
Carmen Souza writes yet another direction on the history of Cape Verdean music: her very own new Cape Verdean Singer/Songwriter style never before explored in this way, on record, by a women composer in the Cape Verdean music.
...the songs appear naked but already soulful in its spirit…we felt the need to listen and play our songs in it's first form.
02:57
717
Нет комментариев. Ваш будет первым!