Поиск

(Brazilian Jazz) Toots Thielemans - The Brasil Project, Vol. 2 - 1993, FLAC (image+.cue), lossless

Треклист:
Toots Thielemans – The Brasil Project, Vol. 2
Жанр: Brazilian Jazz
Год издания: 1993
Издатель (лейбл): Private Music
Номер по каталогу: 01005-82110-2
Аудиокодек: FLAC (*.flac)
Тип рипа: image+.cue
Битрейт аудио: lossless
Продолжительность: 51:36
Rip by bINkI
Наличие сканов в содержимом раздачи: да
Треклист:
01. Cê (5:30)
02. Chôro Bandido (3:36)
03. Retrato Em Branco E Preto (3:19)
04. Obsession (3:35)
05. Travessia (3:09)
06. Flora (4:25)
07. Unconditional Love (5:18)
08. Papel Mache (3:00)
09. O Futebol (3:37)
10. Linda (3:48)
11. Samba De Uma Nota Só (3:22)
12. Oceano (5:21)
13. Samba De Orfeu (3:36)
Personnel:
Toots Thielemans - hmca
Mark Isham - tp, John Clark - frhn, hornette
Eliane Elias, Dave Grusin - p; Mike Lang, Gilson Peranzzetta - key; Ivan Lins - key, vo
Oscar Castro-Neves, Ricardo Silveira, Luis Bonfá, Lee Ritenour - g
Dori Caymmi, Gilberto Gil, João Bosco, Caetano Veloso, Djavan - g, vo
Brian Bromberg, Marc Johnson, Jamil Joanes, Nico Assumpção - b
Steve Schaeffer, Teo Lima - d
Paulinho Da Costa, Cassio Duarte, Bira Hawal, Jose Roberto - perc
Eugene Friesen - clo
Edu Lobo, Milton Nascimento, Chico Buarcue - vo
Rec.: Sony Recording, Signet Recording Studios, Village Recorders and Studio Ultimo, Los Angeles, CA; RPM Recording and The Hit Factory, NYC, NY; Som Livre, Rio De Janeiro, Brasil.
 
 
Лог создания рипа
Exact Audio Copy V0.99 prebeta 4 from 23. January 2008
EAC extraction logfile from 13. April 2009, 12:48
Toots Thielemans / Brasil Project 2
Used drive : HL-DT-STDVD-RAM GH22NP20 Adapter: 1 ID: 1
Read mode : Secure
Utilize accurate stream : Yes
Defeat audio cache : Yes
Make use of C2 pointers : No
Read offset correction : 102
Overread into Lead-In and Lead-Out : No
Fill up missing offset samples with silence : Yes
Delete leading and trailing silent blocks : No
Null samples used in CRC calculations : Yes
Used interface : Installed external ASPI interface
Used output format : Internal WAV Routines
Sample format : 44.100 Hz; 16 Bit; Stereo
TOC of the extracted CD
Track | Start | Length | Start sector | End sector
---------------------------------------------------------
1 | 0:00.00 | 5:30.05 | 0 | 24754
2 | 5:30.05 | 3:36.12 | 24755 | 40966
3 | 9:06.17 | 3:19.28 | 40967 | 55919
4 | 12:25.45 | 3:34.42 | 55920 | 72011
5 | 16:00.12 | 3:08.63 | 72012 | 86174
6 | 19:09.00 | 4:25.25 | 86175 | 106074
7 | 23:34.25 | 5:17.65 | 106075 | 129914
8 | 28:52.15 | 2:59.40 | 129915 | 143379
9 | 31:51.55 | 3:36.65 | 143380 | 159644
10 | 35:28.45 | 3:48.35 | 159645 | 176779
11 | 39:17.05 | 3:22.05 | 176780 | 191934
12 | 42:39.10 | 5:21.00 | 191935 | 216009
13 | 48:00.10 | 3:36.27 | 216010 | 232236
Range status and errors
Selected range
Filename C:\Documents and Settings\Proprietario.RT\Desktop\R\Toots Thielemans - The Brasil Project Vol. 2\Toots Thielemans - Brasil Project 2.wav
Peak level 100.0 %
Range quality 99.9 %
Copy CRC 4DCC3533
Copy OK
No errors occurred
End of status report
 
Содержание индексной карты (.CUE)
REM GENRE Jazz/Brazil
REM DATE 1993
REM DISCID AA0C180D
REM COMMENT "ExactAudioCopy v0.99pb4"
CATALOG 0000000000000
PERFORMER "Toots Thielemans"
TITLE "Brasil Project 2"
FILE "Toots Thielemans - Brasil Project 2.flac" WAVE
TRACK 01 AUDIO
TITLE "Ce"
PERFORMER "Toots Thielemans"
INDEX 01 00:00:00
TRACK 02 AUDIO
TITLE "Choro Bandido"
PERFORMER "Toots Thielemans"
INDEX 00 05:27:25
INDEX 01 05:30:05
TRACK 03 AUDIO
TITLE "Retrato Em Branco E Preto"
PERFORMER "Toots Thielemans"
INDEX 00 09:03:42
INDEX 01 09:06:17
TRACK 04 AUDIO
TITLE "Obsession"
PERFORMER "Toots Thielemans"
INDEX 00 12:22:45
INDEX 01 12:25:45
TRACK 05 AUDIO
TITLE "Travessia"
PERFORMER "Toots Thielemans"
INDEX 00 15:56:47
INDEX 01 16:00:12
TRACK 06 AUDIO
TITLE "Flora"
PERFORMER "Toots Thielemans"
INDEX 00 19:05:10
INDEX 01 19:09:00
TRACK 07 AUDIO
TITLE "Unconditional Love"
PERFORMER "Toots Thielemans"
INDEX 00 23:30:05
INDEX 01 23:34:25
TRACK 08 AUDIO
TITLE "Papel Mache"
PERFORMER "Toots Thielemans"
INDEX 00 28:50:55
INDEX 01 28:52:15
TRACK 09 AUDIO
TITLE "O Futebol"
PERFORMER "Toots Thielemans"
INDEX 00 31:47:25
INDEX 01 31:51:55
TRACK 10 AUDIO
TITLE "Linda"
PERFORMER "Toots Thielemans"
INDEX 00 35:23:65
INDEX 01 35:28:45
TRACK 11 AUDIO
TITLE "Samba De Uma Nota So"
PERFORMER "Toots Thielemans"
INDEX 00 39:13:37
INDEX 01 39:17:05
TRACK 12 AUDIO
TITLE "Oceano"
PERFORMER "Toots Thielemans"
INDEX 00 42:35:67
INDEX 01 42:39:10
TRACK 13 AUDIO
TITLE "Samba De Orfeu"
PERFORMER "Toots Thielemans"
INDEX 00 47:54:37
INDEX 01 48:00:10
 
AccurateRip
[CUETools log; Date: 12.06.2012 18:19:28; Version: 2.0.9]
[CTDB TOCID: 56P5t9jvusxUzmUs_QAMgVcWnh0-] found.
[ CTDBID ] Status
[31910230] (1/1) Accurately ripped
[AccurateRip ID: 0018f5de-00f7f14d-aa0c180d] found.
Track [ CRC ] Status
01 [13fe5226] (06/13) Accurately ripped
02 [84812b45] (06/13) Accurately ripped
03 [281fd7b6] (06/13) Accurately ripped
04 [203abed2] (06/13) Accurately ripped
05 [62b09b48] (06/13) Accurately ripped
06 [378ab36e] (06/13) Accurately ripped
07 [12d07f8a] (06/13) Accurately ripped
08 [605065c6] (05/12) Accurately ripped
09 [a309c1cd] (06/13) Accurately ripped
10 [3b7dffa0] (06/13) Accurately ripped
11 [852b4e88] (06/12) Accurately ripped
12 [298b31e9] (06/12) Accurately ripped
13 [ecf915d1] (06/11) Accurately ripped
Offsetted by 76:
01 [f91aef2e] (07/13) Accurately ripped
02 [f2821897] (07/13) Accurately ripped
03 [740202ad] (07/13) Accurately ripped
04 [27ee71ab] (07/13) Accurately ripped
05 [e793787f] (07/13) Accurately ripped
06 [da543199] (07/13) Accurately ripped
07 [6058768b] (07/13) Accurately ripped
08 [621b2193] (07/12) Accurately ripped
09 [944e86ae] (07/13) Accurately ripped
10 [882a532b] (07/13) Accurately ripped
11 [0da51f61] (06/12) Accurately ripped
12 [8bd79e09] (06/12) Accurately ripped
13 [2d81bc6b] (05/11) Accurately ripped
Track Peak [ CRC32 ] [W/O NULL] [ LOG ]
-- 100,0 [4DCC3533] [314C2381] CRC32
01 89,9 [F4886E21] [030A7DB6]
02 47,6 [1062C086] [71230046]
03 57,6 [CC7EB94B] [9C1C4B0C]
04 81,1 [000DF887] [DF3D7C1E]
05 96,8 [1EC9FE5C] [2B78604C]
06 88,3 [4F4478DE] [49A0D3B9]
07 93,1 [8C0B68F8] [DF0E6B95]
08 78,2 [06A6F651] [949ABC78]
09 75,4 [3B0A50FA] [0D99A8AC]
10 57,7 [C205943F] [5F9D3B6C]
11 100,0 [C13F131E] [05CBCCC3]
12 84,4 [2A147912] [84162EED]
13 87,4 [53440A06] [4E4BDBC9]
02:59
324
Нет комментариев. Ваш будет первым!