Поиск

(Latin Jazz) Toninho Horta — From Ton To Tom: A Tribute To Tom Jobim (1998) — 2005, FLAC (tracks+.cue) lossless

Треклист:
Toninho Horta — From Ton To Tom: A Tribute To Tom Jobim (1998)
Жанр: Latin Jazz
Год издания диска: 2005
Лейбл: Videoarts Music
Номер по каталогу: VACM-1127
Аудио кодек: FLAC (*.flac)
Тип рипа: tracks+.cue
Битрейт аудио: lossless
Продолжительность: 58:49
Риппер: jack335
Сканы: 300 dpi
Треклист:
01. Meditacao (4:35)
02. Infinite Love (4:01)
03. From Ton To Tom (Silent Song) (4:46)
04. Cristiana (4:39)
05. Promessas Que Eu Fiz (4:55)
06. Desafinado (5:14)
07. Retrato em Branco e Preto (5:45)
08. Modinha (3:30)
09. Agua de Beber (5:50)
10. Sem Voce (3:30)
11. Chega de Saudade (No More Blues) (6:09)
12. Se Todos Fossem Iguais A Voce (5:15)
13. The Girl From Ipanema (0:40)
 
 
Лог создания рипа
Exact Audio Copy V0.99 prebeta 5 from 4. May 2009
EAC extraction logfile from 26. November 2010, 0:45
Toninho Horta / From Ton To Tom- A Tribute To Tom Jobim
Used drive : PHILIPS SPD2519T Adapter: 1 ID: 0
Read mode : Secure
Utilize accurate stream : Yes
Defeat audio cache : Yes
Make use of C2 pointers : No
Read offset correction : 6
Overread into Lead-In and Lead-Out : No
Fill up missing offset samples with silence : Yes
Delete leading and trailing silent blocks : No
Null samples used in CRC calculations : Yes
Used interface : Installed external ASPI interface
Gap handling : Appended to previous track
Used output format : User Defined Encoder
Selected bitrate : 1024 kBit/s
Quality : High
Add ID3 tag : Yes
Command line compressor : C:\Program Files\FLAC\flac.exe
Additional command line options : -6 -6 -V -T "ARTIST=%a" -T "TITLE=%t" -T "ALBUM=%g" -T "DATE=%y" -T "TRACKNUMBER=%n" -T "GENRE=%m" -T "COMMENT=EAC FLAC -6" %s
TOC of the extracted CD
Track | Start | Length | Start sector | End sector
---------------------------------------------------------
1 | 0:00.00 | 4:35.05 | 0 | 20629
2 | 4:35.05 | 4:00.62 | 20630 | 38691
3 | 8:35.67 | 4:45.45 | 38692 | 60111
4 | 13:21.37 | 4:38.53 | 60112 | 81014
5 | 18:00.15 | 4:54.62 | 81015 | 103126
6 | 22:55.02 | 5:14.35 | 103127 | 126711
7 | 28:09.37 | 5:44.55 | 126712 | 152566
8 | 33:54.17 | 3:30.15 | 152567 | 168331
9 | 37:24.32 | 5:49.48 | 168332 | 194554
10 | 43:14.05 | 3:30.20 | 194555 | 210324
11 | 46:44.25 | 6:08.45 | 210325 | 237969
12 | 52:52.70 | 5:15.25 | 237970 | 261619
13 | 58:08.20 | 0:40.22 | 261620 | 264641
Track 1
Filename D:\Toninho Horta - From Ton To Tom- A Tribute To Tom Jobim (1998)\01 - Meditacao.wav
Pre-gap length 0:00:02.00
Peak level 95.8 %
Track quality 100.0 %
Copy CRC A2E73C9D
Cannot be verified as accurate (confidence 2) [72A61AC6], AccurateRip returned [67EF8EAE]
Copy OK
Track 2
Filename D:\Toninho Horta - From Ton To Tom- A Tribute To Tom Jobim (1998)\02 - Infinite Love.wav
Pre-gap length 0:00:00.10
Peak level 95.1 %
Track quality 100.0 %
Copy CRC 6E8D9512
Cannot be verified as accurate (confidence 2) [B2A070A9], AccurateRip returned [54C0BA99]
Copy OK
Track 3
Filename D:\Toninho Horta - From Ton To Tom- A Tribute To Tom Jobim (1998)\03 - From Ton To Tom (Silent Song).wav
Peak level 95.7 %
Track quality 99.9 %
Copy CRC 504F9CE3
Cannot be verified as accurate (confidence 2) [E24678CD], AccurateRip returned [3866334D]
Copy OK
Track 4
Filename D:\Toninho Horta - From Ton To Tom- A Tribute To Tom Jobim (1998)\04 - Cristiana.wav
Pre-gap length 0:00:00.05
Peak level 95.7 %
Track quality 100.0 %
Copy CRC 630C7FBF
Cannot be verified as accurate (confidence 2) [12ACD8FD], AccurateRip returned [17069569]
Copy OK
Track 5
Filename D:\Toninho Horta - From Ton To Tom- A Tribute To Tom Jobim (1998)\05 - Promessas Que Eu Fiz.wav
Peak level 98.8 %
Track quality 100.0 %
Copy CRC AFDA34CB
Cannot be verified as accurate (confidence 2) [BEBE9100], AccurateRip returned [2DF52C34]
Copy OK
Track 6
Filename D:\Toninho Horta - From Ton To Tom- A Tribute To Tom Jobim (1998)\06 - Desafinado.wav
Pre-gap length 0:00:00.03
Peak level 94.7 %
Track quality 99.9 %
Copy CRC 0CA351B5
Cannot be verified as accurate (confidence 2) [EFE7C2DB], AccurateRip returned [8B880203]
Copy OK
Track 7
Filename D:\Toninho Horta - From Ton To Tom- A Tribute To Tom Jobim (1998)\07 - Retrato em Branco e Preto.wav
Pre-gap length 0:00:00.07
Peak level 95.0 %
Track quality 100.0 %
Copy CRC 19AB2C0B
Cannot be verified as accurate (confidence 2) [59F5195E], AccurateRip returned [B5DF1B3A]
Copy OK
Track 8
Filename D:\Toninho Horta - From Ton To Tom- A Tribute To Tom Jobim (1998)\08 - Modinha.wav
Peak level 87.9 %
Track quality 99.9 %
Copy CRC 66EE53C6
Cannot be verified as accurate (confidence 2) [D4F9A16A], AccurateRip returned [A2CC1552]
Copy OK
Track 9
Filename D:\Toninho Horta - From Ton To Tom- A Tribute To Tom Jobim (1998)\09 - Agua de Beber.wav
Pre-gap length 0:00:00.09
Peak level 96.4 %
Track quality 99.9 %
Copy CRC 00947BAC
Cannot be verified as accurate (confidence 2) [52E923C6], AccurateRip returned [BAEEF7DA]
Copy OK
Track 10
Filename D:\Toninho Horta - From Ton To Tom- A Tribute To Tom Jobim (1998)\10 - Sem Voce.wav
Peak level 95.0 %
Track quality 100.0 %
Copy CRC 840198FA
Cannot be verified as accurate (confidence 2) [C84AE372], AccurateRip returned [DF35EA2E]
Copy OK
Track 11
Filename D:\Toninho Horta - From Ton To Tom- A Tribute To Tom Jobim (1998)\11 - Chega de Saudade (No More Blues).wav
Pre-gap length 0:00:00.07
Peak level 96.7 %
Track quality 99.9 %
Copy CRC 5DF4EE86
Cannot be verified as accurate (confidence 2) [02A70D16], AccurateRip returned [C0F3219C]
Copy OK
Track 12
Filename D:\Toninho Horta - From Ton To Tom- A Tribute To Tom Jobim (1998)\12 - Se Todos Fossem Iguais A Voce.wav
Pre-gap length 0:00:00.09
Peak level 93.2 %
Track quality 100.0 %
Copy CRC 7EC7DF08
Cannot be verified as accurate (confidence 2) [82018E47], AccurateRip returned [A0B72830]
Copy OK
Track 13
Filename D:\Toninho Horta - From Ton To Tom- A Tribute To Tom Jobim (1998)\13 - The Girl From Ipanema.wav
Pre-gap length 0:00:00.07
Peak level 38.3 %
Track quality 100.0 %
Copy CRC B42160DC
Cannot be verified as accurate (confidence 2) [E968746C], AccurateRip returned [EB3983DD]
Copy OK
No tracks could be verified as accurate
You may have a different pressing from the one(s) in the database
No errors occurred
End of status report
 
Содержание индексной карты (.CUE)
п»їREM GENRE Jazz
REM DATE 1998
REM COMMENT EAC FLAC -6
PERFORMER "Toninho Horta"
TITLE "From Ton To Tom- A Tribute To Tom Jobim"
FILE "01 - Meditacao.flac" WAVE
TRACK 01 AUDIO
TITLE "Meditacao"
INDEX 01 00:00:00
FILE "02 - Infinite Love.flac" WAVE
TRACK 02 AUDIO
TITLE "Infinite Love"
INDEX 01 00:00:00
FILE "03 - From Ton To Tom (Silent Song).flac" WAVE
TRACK 03 AUDIO
TITLE "From Ton To Tom (Silent Song)"
INDEX 01 00:00:00
FILE "04 - Cristiana.flac" WAVE
TRACK 04 AUDIO
TITLE "Cristiana"
INDEX 01 00:00:00
FILE "05 - Promessas Que Eu Fiz.flac" WAVE
TRACK 05 AUDIO
TITLE "Promessas Que Eu Fiz"
INDEX 01 00:00:00
FILE "06 - Desafinado.flac" WAVE
TRACK 06 AUDIO
TITLE "Desafinado"
INDEX 01 00:00:00
FILE "07 - Retrato em Branco e Preto.flac" WAVE
TRACK 07 AUDIO
TITLE "Retrato em Branco e Preto"
INDEX 01 00:00:00
FILE "08 - Modinha.flac" WAVE
TRACK 08 AUDIO
TITLE "Modinha"
INDEX 01 00:00:00
FILE "09 - Agua de Beber.flac" WAVE
TRACK 09 AUDIO
TITLE "Agua de Beber"
INDEX 01 00:00:00
FILE "10 - Sem Voce.flac" WAVE
TRACK 10 AUDIO
TITLE "Sem Voce"
INDEX 01 00:00:00
FILE "11 - Chega de Saudade (No More Blues).flac" WAVE
TRACK 11 AUDIO
TITLE "Chega de Saudade (No More Blues)"
INDEX 01 00:00:00
FILE "12 - Se Todos Fossem Iguais A Voce.flac" WAVE
TRACK 12 AUDIO
TITLE "Se Todos Fossem Iguais A Voce"
INDEX 01 00:00:00
FILE "13 - The Girl From Ipanema.flac" WAVE
TRACK 13 AUDIO
TITLE "The Girl From Ipanema"
INDEX 01 00:00:00
 
*.cuetools.flac.cue
REM ACCURATERIPID 001d4d2b-0125f5af-b60dc80d
REM COMMENT "CUETools generated dummy CUE sheet"
REM DATE 1998
REM GENRE "Jazz"
PERFORMER "Toninho Horta"
TITLE "From Ton To Tom- A Tribute To Tom Jobim"
FILE "01 - Meditacao.flac" WAVE
TRACK 01 AUDIO
TITLE "Meditacao"
PERFORMER "Toninho Horta"
INDEX 01 00:00:00
TRACK 02 AUDIO
TITLE "Infinite Love"
PERFORMER "Toninho Horta"
INDEX 00 04:34:72
FILE "02 - Infinite Love.flac" WAVE
INDEX 01 00:00:00
FILE "03 - From Ton To Tom (Silent Song).flac" WAVE
TRACK 03 AUDIO
TITLE "From Ton To Tom (Silent Song)"
PERFORMER "Toninho Horta"
INDEX 01 00:00:00
TRACK 04 AUDIO
TITLE "Cristiana"
PERFORMER "Toninho Horta"
INDEX 00 04:45:41
FILE "04 - Cristiana.flac" WAVE
INDEX 01 00:00:00
FILE "05 - Promessas Que Eu Fiz.flac" WAVE
TRACK 05 AUDIO
TITLE "Promessas Que Eu Fiz"
PERFORMER "Toninho Horta"
INDEX 01 00:00:00
TRACK 06 AUDIO
TITLE "Desafinado"
PERFORMER "Toninho Horta"
INDEX 00 04:54:60
FILE "06 - Desafinado.flac" WAVE
INDEX 01 00:00:00
TRACK 07 AUDIO
TITLE "Retrato em Branco e Preto"
PERFORMER "Toninho Horta"
INDEX 00 05:14:30
FILE "07 - Retrato em Branco e Preto.flac" WAVE
INDEX 01 00:00:00
FILE "08 - Modinha.flac" WAVE
TRACK 08 AUDIO
TITLE "Modinha"
PERFORMER "Toninho Horta"
INDEX 01 00:00:00
TRACK 09 AUDIO
TITLE "Agua de Beber"
PERFORMER "Toninho Horta"
INDEX 00 03:30:08
FILE "09 - Agua de Beber.flac" WAVE
INDEX 01 00:00:00
FILE "10 - Sem Voce.flac" WAVE
TRACK 10 AUDIO
TITLE "Sem Voce"
PERFORMER "Toninho Horta"
INDEX 01 00:00:00
TRACK 11 AUDIO
TITLE "Chega de Saudade (No More Blues)"
PERFORMER "Toninho Horta"
INDEX 00 03:30:15
FILE "11 - Chega de Saudade (No More Blues).flac" WAVE
INDEX 01 00:00:00
TRACK 12 AUDIO
TITLE "Se Todos Fossem Iguais A Voce"
PERFORMER "Toninho Horta"
INDEX 00 06:08:38
FILE "12 - Se Todos Fossem Iguais A Voce.flac" WAVE
INDEX 01 00:00:00
TRACK 13 AUDIO
TITLE "The Girl From Ipanema"
PERFORMER "Toninho Horta"
INDEX 00 05:15:20
FILE "13 - The Girl From Ipanema.flac" WAVE
INDEX 01 00:00:00
19:20
380
Нет комментариев. Ваш будет первым!