Поиск

(Brazilian, Bossa Nova, Samba, Funk) Jorge Ben (Jorge Ben Jor) - Salve Jorge! Box Set [15CD] (feat. Gilberto Gil) - 2009, FLAC (tracks+.cue) lossless

Треклист:
.Official site | Wiki (pt) | Allmusic | Discogs | YouTube. Jorge Ben (Jorge Ben Jor)
Salve Jorge! Box Set
~ 15 CDs ~ .

.
Страна: Brazil || Жанры: Brazilian, Bossa Nova, Samba Jazz, Tropicalia, Funk
Год выпуска: 2009 || Производитель дисков: Universal Music Brazil
Аудио кодек: FLAC || Тип рипа: tracks+.cue || Битрейт: lossless
+ PNG & TIF art scans
Формат: 13 x Studio Albums + 1 [2CD] Compilation, Remastered
Общая продолжительность: 10 часов 14 минут
~ Source: original CDs, ripped by Flabber ~
.
 
1963 ● Samba Esquema Novo
Jorge Ben - Samba Esquema Novo (1963)
Номер по каталогу: 73145181152
Продолжительность: 28:46
.
01. Mas, Que Nada (3:01)
02. Tim, Dom, Dom (2:21)
03. Balanca Pema (1:29)
04. Vem, Morena, Vem (1:59)
05. Chove, Chuva (3:06)
06. E So Sambar (2:06)
07. Rosa, Menina Rosa (2:15)
08. Quero Esquecer Voce (2:22)
09. Uala, Ualala (2:09)
10. A Tamba (3:04)
11. Menina Bonita Nao Chora (2:07)
12. Por Causa de Voce, Menina (2:47)
.
 
EAC log
Exact Audio Copy V0.99 prebeta 5 from 4. May 2009
EAC extraction logfile from 6. January 2010, 13:39
Jorge Ben / Samba Esquema Novo
Used drive : TDK CDRW5200B Adapter: 1 ID: 1
Read mode : Secure
Utilize accurate stream : Yes
Defeat audio cache : Yes
Make use of C2 pointers : No
Read offset correction : 6
Overread into Lead-In and Lead-Out : No
Fill up missing offset samples with silence : Yes
Delete leading and trailing silent blocks : No
Null samples used in CRC calculations : Yes
Used interface : Native Win32 interface for Win NT & 2000
Gap handling : Appended to previous track
Used output format : User Defined Encoder
Selected bitrate : 768 kBit/s
Quality : High
Add ID3 tag : No
Command line compressor : C:\Program Files\Exact Audio Copy\FLAC\FLAC.EXE
Additional command line options : -8 -V -T "ARTIST=%a" -T "TITLE=%t" -T "ALBUM=%g"
-T "DATE=%y" -T "TRACKNUMBER=%n" -T "TOTALTRACKS=%x" -T "GENRE=%m" -T "ALBUM ARTIST=%v"
-T "ALBUMARTIST=%v" -T "COMMENT=EAC V0.99 prebeta 4, Secure Mode, Test & Copy, Accurat
TOC of the extracted CD
Track | Start | Length | Start sector | End sector
---------------------------------------------------------
1 | 0:00.00 | 3:01.43 | 0 | 13617
2 | 3:01.43 | 2:21.59 | 13618 | 24251
3 | 5:23.27 | 1:29.25 | 24252 | 30951
4 | 6:52.52 | 1:59.34 | 30952 | 39910
5 | 8:52.11 | 3:06.20 | 39911 | 53880
6 | 11:58.31 | 2:06.11 | 53881 | 63341
7 | 14:04.42 | 2:15.61 | 63342 | 73527
8 | 16:20.28 | 2:22.18 | 73528 | 84195
9 | 18:42.46 | 2:09.03 | 84196 | 93873
10 | 20:51.49 | 3:04.14 | 93874 | 107687
11 | 23:55.63 | 2:07.65 | 107688 | 117277
12 | 26:03.53 | 2:46.58 | 117278 | 129785
Track 1
Filename C:\01 - Mas, Que Nada!.wav
Pre-gap length 0:00:02.00
Peak level 100.0 %
Track quality 100.0 %
Test CRC 0F06A6A0
Copy CRC 0F06A6A0
Track not present in AccurateRip database
Copy OK
Track 2
Filename C:\02 - Tim, Dom, Dom.wav
Pre-gap length 0:00:02.22
Peak level 100.0 %
Track quality 99.9 %
Test CRC DBCB2F3A
Copy CRC DBCB2F3A
Track not present in AccurateRip database
Copy OK
Track 3
Filename C:\03 - Balanca Pema.wav
Pre-gap length 0:00:02.13
Peak level 100.0 %
Track quality 99.8 %
Test CRC 22A8AC55
Copy CRC 22A8AC55
Track not present in AccurateRip database
Copy OK
Track 4
Filename C:\04 - Vem, Morena, Vem.wav
Pre-gap length 0:00:02.66
Peak level 100.0 %
Track quality 100.0 %
Test CRC 5E930D0A
Copy CRC 5E930D0A
Track not present in AccurateRip database
Copy OK
Track 5
Filename C:\05 - Chove, Chuva.wav
Pre-gap length 0:00:02.49
Peak level 100.0 %
Track quality 99.9 %
Test CRC 35A7352B
Copy CRC 35A7352B
Track not present in AccurateRip database
Copy OK
Track 6
Filename C:\06 - E So Sambar.wav
Pre-gap length 0:00:02.40
Peak level 100.0 %
Track quality 99.9 %
Test CRC 040F8482
Copy CRC 040F8482
Track not present in AccurateRip database
Copy OK
Track 7
Filename C:\07 - Rosa, Menina Rosa.wav
Pre-gap length 0:00:02.22
Peak level 100.0 %
Track quality 99.9 %
Test CRC 4C38347E
Copy CRC 4C38347E
Track not present in AccurateRip database
Copy OK
Track 8
Filename C:\08 - Quero Esquecer Voce.wav
Pre-gap length 0:00:01.94
Peak level 100.0 %
Track quality 100.0 %
Test CRC C3952A78
Copy CRC C3952A78
Track not present in AccurateRip database
Copy OK
Track 9
Filename C:\09 - Uala, Ualala.wav
Pre-gap length 0:00:02.13
Peak level 100.0 %
Track quality 100.0 %
Test CRC CF97AD84
Copy CRC CF97AD84
Track not present in AccurateRip database
Copy OK
Track 10
Filename C:\10 - A Tamba.wav
Pre-gap length 0:00:02.04
Peak level 100.0 %
Track quality 100.0 %
Test CRC FF1FC191
Copy CRC FF1FC191
Track not present in AccurateRip database
Copy OK
Track 11
Filename C:\11 - Menina Bonita Nao Chora.wav
Pre-gap length 0:00:02.04
Peak level 100.0 %
Track quality 100.0 %
Test CRC 4B21FDFE
Copy CRC 4B21FDFE
Track not present in AccurateRip database
Copy OK
Track 12
Filename C:\12 - Por Causa de Voce, Menina.wav
Pre-gap length 0:00:02.58
Peak level 100.0 %
Track quality 100.0 %
Test CRC 3813A111
Copy CRC 3813A111
Track not present in AccurateRip database
Copy OK
None of the tracks are present in the AccurateRip database
No errors occurred
End of status report
 
*.cue
REM GENRE Samba
REM DATE 1963
REM DISCID 8E06C20C
REM COMMENT "ExactAudioCopy v0.99pb5"
PERFORMER "Jorge Ben"
TITLE "Samba Esquema Novo"
FILE "01 - Mas, Que Nada!.wav" WAVE
TRACK 01 AUDIO
TITLE "Mas, Que Nada!"
PERFORMER "Jorge Ben"
INDEX 01 00:00:00
TRACK 02 AUDIO
TITLE "Tim, Dom, Dom"
PERFORMER "Jorge Ben"
INDEX 00 02:59:26
FILE "02 - Tim, Dom, Dom.wav" WAVE
INDEX 01 00:00:00
TRACK 03 AUDIO
TITLE "Balanca Pema"
PERFORMER "Jorge Ben"
INDEX 00 02:19:49
FILE "03 - Balanca Pema.wav" WAVE
INDEX 01 00:00:00
TRACK 04 AUDIO
TITLE "Vem, Morena, Vem"
PERFORMER "Jorge Ben"
INDEX 00 01:26:50
FILE "04 - Vem, Morena, Vem.wav" WAVE
INDEX 01 00:00:00
TRACK 05 AUDIO
TITLE "Chove, Chuva"
PERFORMER "Jorge Ben"
INDEX 00 01:56:72
FILE "05 - Chove, Chuva.wav" WAVE
INDEX 01 00:00:00
TRACK 06 AUDIO
TITLE "E So Sambar"
PERFORMER "Jorge Ben"
INDEX 00 03:03:65
FILE "06 - E So Sambar.wav" WAVE
INDEX 01 00:00:00
TRACK 07 AUDIO
TITLE "Rosa, Menina Rosa"
PERFORMER "Jorge Ben"
INDEX 00 02:03:69
FILE "07 - Rosa, Menina Rosa.wav" WAVE
INDEX 01 00:00:00
TRACK 08 AUDIO
TITLE "Quero Esquecer Voce"
PERFORMER "Jorge Ben"
INDEX 00 02:13:65
FILE "08 - Quero Esquecer Voce.wav" WAVE
INDEX 01 00:00:00
TRACK 09 AUDIO
TITLE "Uala, Ualala"
PERFORMER "Jorge Ben"
INDEX 00 02:20:08
FILE "09 - Uala, Ualala.wav" WAVE
INDEX 01 00:00:00
TRACK 10 AUDIO
TITLE "A Tamba"
PERFORMER "Jorge Ben"
INDEX 00 02:07:00
FILE "10 - A Tamba.wav" WAVE
INDEX 01 00:00:00
TRACK 11 AUDIO
TITLE "Menina Bonita Nao Chora"
PERFORMER "Jorge Ben"
INDEX 00 03:02:11
FILE "11 - Menina Bonita Nao Chora.wav" WAVE
INDEX 01 00:00:00
TRACK 12 AUDIO
TITLE "Por Causa de Voce, Menina"
PERFORMER "Jorge Ben"
INDEX 00 02:05:21
FILE "12 - Por Causa de Voce, Menina.wav" WAVE
INDEX 01 00:00:00
 
Audiochecker’s log
AUDIOCHECKER v2.0 beta (build 457) - by Dester - opdester@freemail.hu
~~~~~~~~~~~~~~~~~~~~~~~~~~~~~~~~~~
Started at: понедельник, 29. 03. 2010. - 13:35.22
12 files found
01 -===- C:\Jorge Ben - 1963 - Samba Esquema Novo (2009)\01 - Mas, Que Nada!.flac
Extracted successfully
Conclusion: this track is CDDA with probability 99%
Tempfile successfully deleted.
02 -===- C:\Jorge Ben - 1963 - Samba Esquema Novo (2009)\02 - Tim, Dom, Dom.flac
Extracted successfully
Conclusion: this track is CDDA with probability 100%
Tempfile successfully deleted.
03 -===- C:\Jorge Ben - 1963 - Samba Esquema Novo (2009)\03 - Balanca Pema.flac
Extracted successfully
Conclusion: this track is CDDA with probability 99%
Tempfile successfully deleted.
04 -===- C:\Jorge Ben - 1963 - Samba Esquema Novo (2009)\04 - Vem, Morena, Vem.flac
Extracted successfully
Conclusion: this track is CDDA with probability 100%
Tempfile successfully deleted.
05 -===- C:\Jorge Ben - 1963 - Samba Esquema Novo (2009)\05 - Chove, Chuva.flac
Extracted successfully
Conclusion: this track is CDDA with probability 100%
Tempfile successfully deleted.
06 -===- C:\Jorge Ben - 1963 - Samba Esquema Novo (2009)\06 - E So Sambar.flac
Extracted successfully
Conclusion: this track is CDDA with probability 100%
Tempfile successfully deleted.
07 -===- C:\Jorge Ben - 1963 - Samba Esquema Novo (2009)\07 - Rosa, Menina Rosa.flac
Extracted successfully
Conclusion: this track is CDDA with probability 100%
Tempfile successfully deleted.
08 -===- C:\Jorge Ben - 1963 - Samba Esquema Novo (2009)\08 - Quero Esquecer Voce.flac
Extracted successfully
Conclusion: this track is CDDA with probability 99%
Tempfile successfully deleted.
09 -===- C:\Jorge Ben - 1963 - Samba Esquema Novo (2009)\09 - Uala, Ualala.flac
Extracted successfully
Conclusion: this track is CDDA with probability 100%
Tempfile successfully deleted.
10 -===- C:\Jorge Ben - 1963 - Samba Esquema Novo (2009)\10 - A Tamba.flac
Extracted successfully
Conclusion: this track is CDDA with probability 100%
Tempfile successfully deleted.
11 -===- C:\Jorge Ben - 1963 - Samba Esquema Novo (2009)\11 - Menina Bonita Nao Chora.flac
Extracted successfully
Conclusion: this track is CDDA with probability 100%
Tempfile successfully deleted.
12 -===- C:\Jorge Ben - 1963 - Samba Esquema Novo (2009)\12 - Por Causa de Voce, Menina.flac
Extracted successfully
Conclusion: this track is CDDA with probability 100%
Tempfile successfully deleted.
Finished at: понедельник, 29. 03. 2010. - 13:44.51 (operation time: 0:09.28)
 
1964 ● Ben e Samba Bom
Jorge Ben - Ben e Samba Bom (1964)
Номер по каталогу: 73145181132
Продолжительность: 32:05
.
01. Descalco No Parque (3:04)
02. Onde Anda O Meu Amor (3:04)
03. Bicho Do Mato (3:19)
04. Samba Legal (2:24)
05. Oba, La, La (2:36)
06. Gabriela (2:53)
07. Zope Zope (2:45)
08. Saida Do Porto (3:16)
09. Dandara, Hei (2:35)
10. Samba, Menina (3:19)
11. Guerreiro Do Rei (2:50)
.
 
EAC log
Exact Audio Copy V0.99 prebeta 5 from 4. May 2009
EAC extraction logfile from 2. January 2010, 18:30
Jorge Ben / Ben e samba bom
Used drive : TDK CDRW5200B Adapter: 1 ID: 1
Read mode : Secure
Utilize accurate stream : Yes
Defeat audio cache : Yes
Make use of C2 pointers : No
Read offset correction : 6
Overread into Lead-In and Lead-Out : No
Fill up missing offset samples with silence : Yes
Delete leading and trailing silent blocks : No
Null samples used in CRC calculations : Yes
Used interface : Native Win32 interface for Win NT & 2000
Gap handling : Appended to previous track
Used output format : User Defined Encoder
Selected bitrate : 768 kBit/s
Quality : High
Add ID3 tag : No
Command line compressor : C:\Program Files\Exact Audio Copy\FLAC\FLAC.EXE
Additional command line options : -8 -V -T "ARTIST=%a" -T "TITLE=%t" -T "ALBUM=%g"
-T "DATE=%y" -T "TRACKNUMBER=%n" -T "TOTALTRACKS=%x" -T "GENRE=%m" -T "ALBUM ARTIST=%v"
-T "ALBUMARTIST=%v" -T "COMMENT=EAC V0.99 prebeta 4, Secure Mode, Test & Copy, Accurat
TOC of the extracted CD
Track | Start | Length | Start sector | End sector
---------------------------------------------------------
1 | 0:00.00 | 3:03.32 | 0 | 13756
2 | 3:03.32 | 3:03.14 | 13757 | 27495
3 | 6:06.46 | 3:17.44 | 27496 | 42314
4 | 9:24.15 | 2:42.32 | 42315 | 54496
5 | 12:06.47 | 2:23.55 | 54497 | 65276
6 | 14:30.27 | 2:35.18 | 65277 | 76919
7 | 17:05.45 | 2:52.32 | 76920 | 89851
8 | 19:58.02 | 2:44.20 | 89852 | 102171
9 | 22:42.22 | 3:14.27 | 102172 | 116748
10 | 25:56.49 | 2:33.55 | 116749 | 128278
11 | 28:30.29 | 3:18.01 | 128279 | 143129
12 | 31:48.30 | 2:49.03 | 143130 | 155807
Track 1
Filename C:\01 - Descalco no parque.wav
Pre-gap length 0:00:02.00
Peak level 100.0 %
Track quality 100.0 %
Test CRC 6FCB9410
Copy CRC 6FCB9410
Track not present in AccurateRip database
Copy OK
Track 2
Filename C:\02 - Onde anda o meu amor.wav
Pre-gap length 0:00:01.02
Peak level 99.3 %
Track quality 100.0 %
Test CRC DECF65E8
Copy CRC DECF65E8
Track not present in AccurateRip database
Copy OK
Track 3
Filename C:\03 - Bicho do mato.wav
Pre-gap length 0:00:01.13
Peak level 98.6 %
Track quality 99.9 %
Test CRC 661BC199
Copy CRC 661BC199
Track not present in AccurateRip database
Copy OK
Track 4
Filename C:\04 - Vou de samba com voce.wav
Peak level 98.8 %
Track quality 100.0 %
Test CRC 0B72863D
Copy CRC 0B72863D
Track not present in AccurateRip database
Copy OK
Track 5
Filename C:\05 - Samba legal.wav
Peak level 98.7 %
Track quality 100.0 %
Test CRC 6996FEC1
Copy CRC 6996FEC1
Track not present in AccurateRip database
Copy OK
Track 6
Filename C:\06 - Oba, la, la.wav
Pre-gap length 0:00:01.02
Peak level 98.9 %
Track quality 100.0 %
Test CRC 13B9CF2F
Copy CRC 13B9CF2F
Track not present in AccurateRip database
Copy OK
Track 7
Filename C:\07 - Gabriela.wav
Peak level 99.8 %
Track quality 100.0 %
Test CRC BFC9784D
Copy CRC BFC9784D
Track not present in AccurateRip database
Copy OK
Track 8
Filename C:\08 - Zope Zope.wav
Peak level 98.7 %
Track quality 100.0 %
Test CRC 072E5E0A
Copy CRC 072E5E0A
Track not present in AccurateRip database
Copy OK
Track 9
Filename C:\09 - Saida do porto.wav
Peak level 99.3 %
Track quality 100.0 %
Test CRC 6B985965
Copy CRC 6B985965
Track not present in AccurateRip database
Copy OK
Track 10
Filename C:\10 - Dandara, hei.wav
Peak level 98.6 %
Track quality 99.9 %
Test CRC C697BD4C
Copy CRC C697BD4C
Track not present in AccurateRip database
Copy OK
Track 11
Filename C:\11 - Samba, menina.wav
Peak level 99.9 %
Track quality 100.0 %
Test CRC 25510DD7
Copy CRC 25510DD7
Track not present in AccurateRip database
Copy OK
Track 12
Filename C:\12 - Guerreiro do Rei.wav
Pre-gap length 0:00:01.13
Peak level 97.5 %
Track quality 99.9 %
Test CRC 9AA99003
Copy CRC 9AA99003
Track not present in AccurateRip database
Copy OK
None of the tracks are present in the AccurateRip database
No errors occurred
End of status report
 
*.cue
REM GENRE Samba
REM DATE 1964
REM DISCID 98081D0C
REM COMMENT "ExactAudioCopy v0.99pb5"
PERFORMER "Jorge Ben"
TITLE "Ben e samba bom "
FILE "01 - Descalco no parque.wav" WAVE
TRACK 01 AUDIO
TITLE "Descalco no parque"
PERFORMER "Jorge Ben"
INDEX 01 00:00:00
TRACK 02 AUDIO
TITLE "Onde anda o meu amor"
PERFORMER "Jorge Ben"
INDEX 00 03:02:30
FILE "02 - Onde anda o meu amor.wav" WAVE
INDEX 01 00:00:00
TRACK 03 AUDIO
TITLE "Bicho do mato"
PERFORMER "Jorge Ben"
INDEX 00 03:02:04
FILE "03 - Bicho do mato.wav" WAVE
INDEX 01 00:00:00
FILE "04 - Vou de samba com voce.wav" WAVE
TRACK 04 AUDIO
TITLE "Vou de samba com voce"
PERFORMER "Jorge Ben"
INDEX 01 00:00:00
FILE "05 - Samba legal.wav" WAVE
TRACK 05 AUDIO
TITLE "Samba legal"
PERFORMER "Jorge Ben"
INDEX 01 00:00:00
TRACK 06 AUDIO
TITLE "Oba, la, la"
PERFORMER "Jorge Ben"
INDEX 00 02:22:53
FILE "06 - Oba, la, la.wav" WAVE
INDEX 01 00:00:00
FILE "07 - Gabriela.wav" WAVE
TRACK 07 AUDIO
TITLE "Gabriela"
PERFORMER "Jorge Ben"
INDEX 01 00:00:00
FILE "08 - Zope Zope.wav" WAVE
TRACK 08 AUDIO
TITLE "Zope Zope"
PERFORMER "Jorge Ben"
INDEX 01 00:00:00
FILE "09 - Saida do porto.wav" WAVE
TRACK 09 AUDIO
TITLE "Saida do porto"
PERFORMER "Jorge Ben"
INDEX 01 00:00:00
FILE "10 - Dandara, hei.wav" WAVE
TRACK 10 AUDIO
TITLE "Dandara, hei"
PERFORMER "Jorge Ben"
INDEX 01 00:00:00
FILE "11 - Samba, menina.wav" WAVE
TRACK 11 AUDIO
TITLE "Samba, menina"
PERFORMER "Jorge Ben"
INDEX 01 00:00:00
TRACK 12 AUDIO
TITLE "Guerreiro do Rei"
PERFORMER "Jorge Ben"
INDEX 00 03:16:66
FILE "12 - Guerreiro do Rei.wav" WAVE
INDEX 01 00:00:00
 
Audiochecker’s log
AUDIOCHECKER v2.0 beta (build 457) - by Dester - opdester@freemail.hu
~~~~~~~~~~~~~~~~~~~~~~~~~~~~~~~~~~
Started at: пятница, 02. 04. 2010. - 16:03.12
12 files found
01 -===- F:\Jorge Ben - 1964 - Ben e Samba Bom (2009)\01 - Descalco no parque.flac
Extracted successfully
Conclusion: this track is CDDA with probability 100%
Tempfile successfully deleted.
02 -===- F:\Jorge Ben - 1964 - Ben e Samba Bom (2009)\02 - Onde anda o meu amor.flac
Extracted successfully
Conclusion: this track is CDDA with probability 100%
Tempfile successfully deleted.
03 -===- F:\Jorge Ben - 1964 - Ben e Samba Bom (2009)\03 - Bicho do mato.flac
Extracted successfully
Conclusion: this track is CDDA with probability 100%
Tempfile successfully deleted.
04 -===- F:\Jorge Ben - 1964 - Ben e Samba Bom (2009)\04 - Vou de samba com voce.flac
Extracted successfully
Conclusion: this track is CDDA with probability 100%
Tempfile successfully deleted.
05 -===- F:\Jorge Ben - 1964 - Ben e Samba Bom (2009)\05 - Samba legal.flac
Extracted successfully
Conclusion: this track is CDDA with probability 100%
Tempfile successfully deleted.
06 -===- F:\Jorge Ben - 1964 - Ben e Samba Bom (2009)\06 - Oba, la, la.flac
Extracted successfully
Conclusion: this track is CDDA with probability 100%
Tempfile successfully deleted.
07 -===- F:\Jorge Ben - 1964 - Ben e Samba Bom (2009)\07 - Gabriela.flac
Extracted successfully
Conclusion: this track is CDDA with probability 100%
Tempfile successfully deleted.
08 -===- F:\Jorge Ben - 1964 - Ben e Samba Bom (2009)\08 - Zope Zope.flac
Extracted successfully
Conclusion: this track is CDDA with probability 100%
Tempfile successfully deleted.
09 -===- F:\Jorge Ben - 1964 - Ben e Samba Bom (2009)\09 - Saida do porto.flac
Extracted successfully
Conclusion: this track is CDDA with probability 100%
Tempfile successfully deleted.
10 -===- F:\Jorge Ben - 1964 - Ben e Samba Bom (2009)\10 - Dandara, hei.flac
Extracted successfully
Conclusion: this track is CDDA with probability 100%
Tempfile successfully deleted.
11 -===- F:\Jorge Ben - 1964 - Ben e Samba Bom (2009)\11 - Samba, menina.flac
Extracted successfully
Conclusion: this track is CDDA with probability 99%
Tempfile successfully deleted.
12 -===- F:\Jorge Ben - 1964 - Ben e Samba Bom (2009)\12 - Guerreiro do Rei.flac
Extracted successfully
Conclusion: this track is CDDA with probability 100%
Tempfile successfully deleted.
Finished at: пятница, 02. 04. 2010. - 16:20.31 (operation time: 0:17.19)
 
1964 ● Sacundin Ben Samba
Jorge Ben - Sacundin Ben Samba (1964)
Номер по каталогу: 5181092
Продолжительность: 34:44
.
01. Anjo Azul (2:53)
02. Nena Nana (2:55)
03. Vamos Embora 'Uau' (2:35)
04. Capoeira (2:51)
05. Gimbo (2:38)
06. Carnaval Triste (2:39)
07. A Princesa e O Plebeu (3:31)
08. Menina Do Vestido Coral (3:38)
09. Pula Bau (2:32)
10. Jeitao de Preto Velho (3:09)
11. Espero Por Voce (2:08)
12. Nao Desanima, Joao (3:15)
.
 
EAC log
Exact Audio Copy V0.99 prebeta 5 from 4. May 2009
EAC extraction logfile from 8. January 2010, 11:40
Jorge Ben / Sacundin Ben Samba
Used drive : TDK CDRW5200B Adapter: 1 ID: 1
Read mode : Secure
Utilize accurate stream : Yes
Defeat audio cache : Yes
Make use of C2 pointers : No
Read offset correction : 6
Overread into Lead-In and Lead-Out : No
Fill up missing offset samples with silence : Yes
Delete leading and trailing silent blocks : No
Null samples used in CRC calculations : Yes
Used interface : Native Win32 interface for Win NT & 2000
Gap handling : Appended to previous track
Used output format : User Defined Encoder
Selected bitrate : 768 kBit/s
Quality : High
Add ID3 tag : No
Command line compressor : C:\Program Files\Exact Audio Copy\FLAC\FLAC.EXE
Additional command line options : -8 -V -T "ARTIST=%a" -T "TITLE=%t" -T "ALBUM=%g" -T "DATE=%y"
-T "TRACKNUMBER=%n" -T "TOTALTRACKS=%x" -T "GENRE=%m" -T "ALBUM ARTIST=%v" -T "ALBUMARTIST=%v"
-T "COMMENT=EAC V0.99 prebeta 4, Secure Mode, Test & Copy, Accurat
TOC of the extracted CD
Track | Start | Length | Start sector | End sector
---------------------------------------------------------
1 | 0:00.00 | 2:48.24 | 0 | 12623
2 | 2:48.24 | 2:51.39 | 12624 | 25487
3 | 5:39.63 | 2:32.50 | 25488 | 36937
4 | 8:12.38 | 2:48.61 | 36938 | 49598
5 | 11:01.24 | 2:35.21 | 49599 | 61244
6 | 13:36.45 | 2:34.22 | 61245 | 72816
7 | 16:10.67 | 3:26.24 | 72817 | 88290
8 | 19:37.16 | 3:31.71 | 88291 | 104186
9 | 23:09.12 | 2:26.26 | 104187 | 115162
10 | 25:35.38 | 3:03.17 | 115163 | 128904
11 | 28:38.55 | 2:05.42 | 128905 | 138321
12 | 30:44.22 | 3:12.60 | 138322 | 152781
Track 1
Filename C:\01 - Anjo Azul.wav
Pre-gap length 0:00:02.00
Peak level 97.3 %
Track quality 99.9 %
Test CRC 435832F6
Copy CRC 435832F6
Track not present in AccurateRip database
Copy OK
Track 2
Filename C:\02 - Nena Nana.wav
Peak level 98.4 %
Track quality 100.0 %
Test CRC DE53FD7E
Copy CRC DE53FD7E
Track not present in AccurateRip database
Copy OK
Track 3
Filename C:\03 - Vamos Embora 'Uau'.wav
Pre-gap length 0:00:01.49
Peak level 98.1 %
Track quality 100.0 %
Test CRC 06831857
Copy CRC 06831857
Track not present in AccurateRip database
Copy OK
Track 4
Filename C:\04 - Capoeira.wav
Peak level 98.1 %
Track quality 100.0 %
Test CRC 0019756F
Copy CRC 0019756F
Track not present in AccurateRip database
Copy OK
Track 5
Filename C:\05 - Gimbo.wav
Peak level 98.9 %
Track quality 100.0 %
Test CRC 42B30C8B
Copy CRC 42B30C8B
Track not present in AccurateRip database
Copy OK
Track 6
Filename C:\06 - Carnaval Triste.wav
Peak level 98.0 %
Track quality 100.0 %
Test CRC 73FC76C2
Copy CRC 73FC76C2
Track not present in AccurateRip database
Copy OK
Track 7
Filename C:\07 - A Princesa E O Plebeu.wav
Pre-gap length 0:00:01.58
Peak level 97.8 %
Track quality 100.0 %
Test CRC 37C40216
Copy CRC 37C40216
Track not present in AccurateRip database
Copy OK
Track 8
Filename C:\08 - Menina Do Vestido Coral.wav
Peak level 97.4 %
Track quality 100.0 %
Test CRC C2577EC9
Copy CRC C2577EC9
Track not present in AccurateRip database
Copy OK
Track 9
Filename C:\09 - Pula Bau.wav
Pre-gap length 0:00:01.18
Peak level 98.1 %
Track quality 100.0 %
Test CRC 7CF371AC
Copy CRC 7CF371AC
Track not present in AccurateRip database
Copy OK
Track 10
Filename C:\10 - Jeitao De Preto Velho.wav
Pre-gap length 0:00:01.08
Peak level 98.1 %
Track quality 100.0 %
Test CRC 25148566
Copy CRC 25148566
Track not present in AccurateRip database
Copy OK
Track 11
Filename C:\11 - Espero Por Voce.wav
Pre-gap length 0:00:01.10
Peak level 97.3 %
Track quality 100.0 %
Test CRC CC32E7D3
Copy CRC CC32E7D3
Track not present in AccurateRip database
Copy OK
Track 12
Filename C:\12 - Nao Desanima, Joao.wav
Peak level 98.1 %
Track quality 100.0 %
Test CRC F75152D9
Copy CRC F75152D9
Track not present in AccurateRip database
Copy OK
None of the tracks are present in the AccurateRip database
No errors occurred
End of status report
 
*.cue
REM GENRE Soul
REM DATE 1964
REM DISCID A207F50C
REM COMMENT "ExactAudioCopy v0.99pb5"
PERFORMER "Jorge Ben"
TITLE "Sacundin Ben Samba"
FILE "01 - Anjo Azul.wav" WAVE
TRACK 01 AUDIO
TITLE "Anjo Azul"
PERFORMER "Jorge Ben"
INDEX 01 00:00:00
FILE "02 - Nena Nana.wav" WAVE
TRACK 02 AUDIO
TITLE "Nena Nana"
PERFORMER "Jorge Ben"
INDEX 01 00:00:00
TRACK 03 AUDIO
TITLE "Vamos Embora 'Uau'"
PERFORMER "Jorge Ben"
INDEX 00 02:50:02
FILE "03 - Vamos Embora 'Uau'.wav" WAVE
INDEX 01 00:00:00
FILE "04 - Capoeira.wav" WAVE
TRACK 04 AUDIO
TITLE "Capoeira"
PERFORMER "Jorge Ben"
INDEX 01 00:00:00
FILE "05 - Gimbo.wav" WAVE
TRACK 05 AUDIO
TITLE "Gimbo"
PERFORMER "Jorge Ben"
INDEX 01 00:00:00
FILE "06 - Carnaval Triste.wav" WAVE
TRACK 06 AUDIO
TITLE "Carnaval Triste"
PERFORMER "Jorge Ben"
INDEX 01 00:00:00
TRACK 07 AUDIO
TITLE "A Princesa E O Plebeu"
PERFORMER "Jorge Ben"
INDEX 00 02:32:53
FILE "07 - A Princesa E O Plebeu.wav" WAVE
INDEX 01 00:00:00
FILE "08 - Menina Do Vestido Coral.wav" WAVE
TRACK 08 AUDIO
TITLE "Menina Do Vestido Coral"
PERFORMER "Jorge Ben"
INDEX 01 00:00:00
TRACK 09 AUDIO
TITLE "Pula Bau"
PERFORMER "Jorge Ben"
INDEX 00 03:30:57
FILE "09 - Pula Bau.wav" WAVE
INDEX 01 00:00:00
TRACK 10 AUDIO
TITLE "Jeitao De Preto Velho"
PERFORMER "Jorge Ben"
INDEX 00 02:25:20
FILE "10 - Jeitao De Preto Velho.wav" WAVE
INDEX 01 00:00:00
TRACK 11 AUDIO
TITLE "Espero Por Voce"
PERFORMER "Jorge Ben"
INDEX 00 03:02:09
FILE "11 - Espero Por Voce.wav" WAVE
INDEX 01 00:00:00
FILE "12 - Nao Desanima, Joao.wav" WAVE
TRACK 12 AUDIO
TITLE "Nao Desanima, Joao"
PERFORMER "Jorge Ben"
INDEX 01 00:00:00
 
Audiochecker’s log
AUDIOCHECKER v2.0 beta (build 457) - by Dester - opdester@freemail.hu
~~~~~~~~~~~~~~~~~~~~~~~~~~~~~~~~~~
Started at: воскресенье, 28. 03. 2010. - 21:24.12
12 files found
01 -===- C:\Jorge Ben - 1964 - Sacundin Ben Samba (2009)\01 - Anjo Azul.flac
Extracted successfully
Conclusion: this track is CDDA with probability 100%
Tempfile successfully deleted.
02 -===- C:\Jorge Ben - 1964 - Sacundin Ben Samba (2009)\02 - Nena Nana.flac
Extracted successfully
Conclusion: this track is CDDA with probability 100%
Tempfile successfully deleted.
03 -===- C:\Jorge Ben - 1964 - Sacundin Ben Samba (2009)\03 - Vamos Embora 'Uau'.flac
Extracted successfully
Conclusion: this track is CDDA with probability 100%
Tempfile successfully deleted.
04 -===- C:\Jorge Ben - 1964 - Sacundin Ben Samba (2009)\04 - Capoeira.flac
Extracted successfully
Conclusion: this track is CDDA with probability 100%
Tempfile successfully deleted.
05 -===- C:\Jorge Ben - 1964 - Sacundin Ben Samba (2009)\05 - Gimbo.flac
Extracted successfully
Conclusion: this track is CDDA with probability 100%
Tempfile successfully deleted.
06 -===- C:\Jorge Ben - 1964 - Sacundin Ben Samba (2009)\06 - Carnaval Triste.flac
Extracted successfully
Conclusion: this track is CDDA with probability 100%
Tempfile successfully deleted.
07 -===- C:\Jorge Ben - 1964 - Sacundin Ben Samba (2009)\07 - A Princesa E O Plebeu.flac
Extracted successfully
Conclusion: this track is CDDA with probability 100%
Tempfile successfully deleted.
08 -===- C:\Jorge Ben - 1964 - Sacundin Ben Samba (2009)\08 - Menina Do Vestido Coral.flac
Extracted successfully
Conclusion: this track is CDDA with probability 100%
Tempfile successfully deleted.
09 -===- C:\Jorge Ben - 1964 - Sacundin Ben Samba (2009)\09 - Pula Bau.flac
Extracted successfully
Conclusion: this track is CDDA with probability 100%
Tempfile successfully deleted.
10 -===- C:\Jorge Ben - 1964 - Sacundin Ben Samba (2009)\10 - Jeitao De Preto Velho.flac
Extracted successfully
Conclusion: this track is CDDA with probability 100%
Tempfile successfully deleted.
11 -===- C:\Jorge Ben - 1964 - Sacundin Ben Samba (2009)\11 - Espero Por Voce.flac
Extracted successfully
Conclusion: this track is CDDA with probability 100%
Tempfile successfully deleted.
12 -===- C:\Jorge Ben - 1964 - Sacundin Ben Samba (2009)\12 - Nao Desanima, Joao.flac
Extracted successfully
Conclusion: this track is CDDA with probability 100%
Tempfile successfully deleted.
Finished at: воскресенье, 28. 03. 2010. - 21:38.06 (operation time: 0:13.53)
 
1965 ● Big Ben
Jorge Ben - Big Ben (1965)
Номер по каталогу: 73145181142
Продолжительность: 33:38
.
01. Na Bahia Tem (3:14)
02. Patapatapatб (2:43)
03. Bom Mesmo e Amar (3:06)
04. Deixa o Menino Brincar (2:16)
05. Lalari-Olala (2:58)
06. Jorge Well (3:31)
07. O Homem, Que Matou O Homem, Que Matou O Homem Mau (2:48)
08. Quase Colorida (3:09)
09. Maria Conga (2:05)
10. Acende O Fogo (2:07)
11. Telefone De Brotinho (2:28)
12. Agora Ninguem Chora Mais (3:13)
.
 
EAC log
Exact Audio Copy V0.99 prebeta 5 from 4. May 2009
EAC extraction logfile from 10. January 2010, 23:51
Jorge Ben / Big-Ben
Used drive : TDK CDRW5200B Adapter: 1 ID: 1
Read mode : Secure
Utilize accurate stream : Yes
Defeat audio cache : Yes
Make use of C2 pointers : No
Read offset correction : 6
Overread into Lead-In and Lead-Out : No
Fill up missing offset samples with silence : Yes
Delete leading and trailing silent blocks : No
Null samples used in CRC calculations : Yes
Used interface : Native Win32 interface for Win NT & 2000
Gap handling : Appended to previous track
Used output format : User Defined Encoder
Selected bitrate : 768 kBit/s
Quality : High
Add ID3 tag : No
Command line compressor : C:\Program Files\Exact Audio Copy\FLAC\FLAC.EXE
Additional command line options : -8 -V -T "ARTIST=%a" -T "TITLE=%t" -T "ALBUM=%g" -T "DATE=%y"
-T "TRACKNUMBER=%n" -T "TOTALTRACKS=%x" -T "GENRE=%m" -T "ALBUM ARTIST=%v" -T "ALBUMARTIST=%v"
-T "COMMENT=EAC V0.99 prebeta 4, Secure Mode, Test & Copy, Accurat
TOC of the extracted CD
Track | Start | Length | Start sector | End sector
---------------------------------------------------------
1 | 0:00.00 | 3:13.21 | 0 | 14495
2 | 3:13.21 | 2:42.29 | 14496 | 26674
3 | 5:55.50 | 3:05.10 | 26675 | 40559
4 | 9:00.60 | 2:16.20 | 40560 | 50779
5 | 11:17.05 | 2:56.50 | 50780 | 64029
6 | 14:13.55 | 3:29.27 | 64030 | 79731
7 | 17:43.07 | 2:47.44 | 79732 | 92300
8 | 20:30.51 | 3:08.12 | 92301 | 106412
9 | 23:38.63 | 2:04.43 | 106413 | 115755
10 | 25:43.31 | 2:05.46 | 115756 | 125176
11 | 27:49.02 | 2:26.60 | 125177 | 136186
12 | 30:15.62 | 3:13.17 | 136187 | 150678
Track 1
Filename C:\01 - Na bahia tem.wav
Pre-gap length 0:00:02.00
Peak level 100.0 %
Track quality 99.9 %
Test CRC 7D5D8238
Copy CRC 7D5D8238
Track not present in AccurateRip database
Copy OK
Track 2
Filename C:\02 - Patapatapata.wav
Pre-gap length 0:00:01.06
Peak level 100.0 %
Track quality 99.9 %
Test CRC C00E797F
Copy CRC C00E797F
Track not present in AccurateRip database
Copy OK
Track 3
Filename C:\03 - Bom mesmo e amar.wav
Peak level 100.0 %
Track quality 100.0 %
Test CRC 0C5BCBC4
Copy CRC 0C5BCBC4
Track not present in AccurateRip database
Copy OK
Track 4
Filename C:\04 - Deixa o menino brincar.wav
Peak level 100.0 %
Track quality 100.0 %
Test CRC 4D598FF7
Copy CRC 4D598FF7
Track not present in AccurateRip database
Copy OK
Track 5
Filename C:\05 - Lalari-olala.wav
Peak level 100.0 %
Track quality 99.9 %
Test CRC 8EC0A2FC
Copy CRC 8EC0A2FC
Track not present in AccurateRip database
Copy OK
Track 6
Filename C:\06 - Jorge well.wav
Peak level 100.0 %
Track quality 100.0 %
Test CRC 21DADF3A
Copy CRC 21DADF3A
Track not present in AccurateRip database
Copy OK
Track 7
Filename C:\07 - O homem, que matou o homem, que matou o homem mau.wav
Peak level 100.0 %
Track quality 100.0 %
Test CRC A6DE8A3C
Copy CRC A6DE8A3C
Track not present in AccurateRip database
Copy OK
Track 8
Filename C:\08 - Quase colorida.wav
Peak level 100.0 %
Track quality 100.0 %
Test CRC 621588F1
Copy CRC 621588F1
Track not present in AccurateRip database
Copy OK
Track 9
Filename C:\09 - Maria conga.wav
Peak level 100.0 %
Track quality 100.0 %
Test CRC 97E76A21
Copy CRC 97E76A21
Track not present in AccurateRip database
Copy OK
Track 10
Filename C:\10 - Acende o fogo.wav
Peak level 100.0 %
Track quality 100.0 %
Test CRC 41F7F4E5
Copy CRC 41F7F4E5
Track not present in AccurateRip database
Copy OK
Track 11
Filename C:\11 - Telefone de brotinho.wav
Peak level 100.0 %
Track quality 99.9 %
Test CRC E6FB8AFC
Copy CRC E6FB8AFC
Track not present in AccurateRip database
Copy OK
Track 12
Filename C:\12 - Agora ningem chora mais.wav
Peak level 100.0 %
Track quality 100.0 %
Test CRC 44E60767
Copy CRC 44E60767
Track not present in AccurateRip database
Copy OK
None of the tracks are present in the AccurateRip database
No errors occurred
End of status report
 
*.cue
REM GENRE Samba
REM DATE 1965
REM DISCID 9D07D90C
REM COMMENT "ExactAudioCopy v0.99pb5"
PERFORMER "Jorge Ben"
TITLE "Big-Ben"
FILE "01 - Na bahia tem.wav" WAVE
TRACK 01 AUDIO
TITLE "Na bahia tem"
PERFORMER "Jorge Ben"
INDEX 01 00:00:00
TRACK 02 AUDIO
TITLE "Patapatapata"
PERFORMER "Jorge Ben"
INDEX 00 03:12:16
FILE "02 - Patapatapata.wav" WAVE
INDEX 01 00:00:00
FILE "03 - Bom mesmo e amar.wav" WAVE
TRACK 03 AUDIO
TITLE "Bom mesmo e amar"
PERFORMER "Jorge Ben"
INDEX 01 00:00:00
FILE "04 - Deixa o menino brincar.wav" WAVE
TRACK 04 AUDIO
TITLE "Deixa o menino brincar"
PERFORMER "Jorge Ben"
INDEX 01 00:00:00
FILE "05 - Lalari-olala.wav" WAVE
TRACK 05 AUDIO
TITLE "Lalari-olala"
PERFORMER "Jorge Ben"
INDEX 01 00:00:00
FILE "06 - Jorge well.wav" WAVE
TRACK 06 AUDIO
TITLE "Jorge well"
PERFORMER "Jorge Ben"
INDEX 01 00:00:00
FILE "07 - O homem, que matou o homem, que matou o homem mau.wav" WAVE
TRACK 07 AUDIO
TITLE "O homem, que matou o homem, que matou o homem mau"
PERFORMER "Jorge Ben"
INDEX 01 00:00:00
FILE "08 - Quase colorida.wav" WAVE
TRACK 08 AUDIO
TITLE "Quase colorida"
PERFORMER "Jorge Ben"
INDEX 01 00:00:00
FILE "09 - Maria conga.wav" WAVE
TRACK 09 AUDIO
TITLE "Maria conga"
PERFORMER "Jorge Ben"
INDEX 01 00:00:00
FILE "10 - Acende o fogo.wav" WAVE
TRACK 10 AUDIO
TITLE "Acende o fogo"
PERFORMER "Jorge Ben"
INDEX 01 00:00:00
FILE "11 - Telefone de brotinho.wav" WAVE
TRACK 11 AUDIO
TITLE "Telefone de brotinho"
PERFORMER "Jorge Ben"
INDEX 01 00:00:00
FILE "12 - Agora ningem chora mais.wav" WAVE
TRACK 12 AUDIO
TITLE "Agora ningem chora mais"
PERFORMER "Jorge Ben"
INDEX 01 00:00:00
 
Audiochecker’s log
AUDIOCHECKER v2.0 beta (build 457) - by Dester - opdester@freemail.hu
~~~~~~~~~~~~~~~~~~~~~~~~~~~~~~~~~~
Started at: четверг, 06. 05. 2010. - 13:01.15
12 files found
01 -===- F:\Jorge Ben - 1965 - Big Ben (2009)\01 - Na bahia tem.flac
Extracted successfully
Conclusion: this track is CDDA with probability 100%
Tempfile successfully deleted.
02 -===- F:\Jorge Ben - 1965 - Big Ben (2009)\02 - Patapatapata.flac
Extracted successfully
Conclusion: this track is CDDA with probability 100%
Tempfile successfully deleted.
03 -===- F:\Jorge Ben - 1965 - Big Ben (2009)\03 - Bom mesmo e amar.flac
Extracted successfully
Conclusion: this track is CDDA with probability 100%
Tempfile successfully deleted.
04 -===- F:\Jorge Ben - 1965 - Big Ben (2009)\04 - Deixa o menino brincar.flac
Extracted successfully
Conclusion: this track is CDDA with probability 100%
Tempfile successfully deleted.
05 -===- F:\Jorge Ben - 1965 - Big Ben (2009)\05 - Lalari-olala.flac
Extracted successfully
Conclusion: this track is CDDA with probability 100%
Tempfile successfully deleted.
06 -===- F:\Jorge Ben - 1965 - Big Ben (2009)\06 - Jorge well.flac
Extracted successfully
Conclusion: this track is CDDA with probability 100%
Tempfile successfully deleted.
07 -===- F:\Jorge Ben - 1965 - Big Ben (2009)\07 - O homem, que matou o homem, que matou o homem mau.flac
Extracted successfully
Conclusion: this track is CDDA with probability 100%
Tempfile successfully deleted.
08 -===- F:\Jorge Ben - 1965 - Big Ben (2009)\08 - Quase colorida.flac
Extracted successfully
Conclusion: this track is CDDA with probability 100%
Tempfile successfully deleted.
09 -===- F:\Jorge Ben - 1965 - Big Ben (2009)\09 - Maria conga.flac
Extracted successfully
Conclusion: this track is CDDA with probability 100%
Tempfile successfully deleted.
10 -===- F:\Jorge Ben - 1965 - Big Ben (2009)\10 - Acende o fogo.flac
Extracted successfully
Conclusion: this track is CDDA with probability 100%
Tempfile successfully deleted.
11 -===- F:\Jorge Ben - 1965 - Big Ben (2009)\11 - Telefone de brotinho.flac
Extracted successfully
Conclusion: this track is CDDA with probability 100%
Tempfile successfully deleted.
12 -===- F:\Jorge Ben - 1965 - Big Ben (2009)\12 - Agora ningem chora mais.flac
Extracted successfully
Conclusion: this track is CDDA with probability 100%
Tempfile successfully deleted.
Finished at: четверг, 06. 05. 2010. - 13:19.11 (operation time: 0:17.56)
 
1969 ● Jorge Ben
Jorge Ben - Jorge Ben (1969)
Номер по каталогу: 73145181182
Продолжительность: 37:52
.
01. Criola (3:31)
02. Domingas (3:29)
03. Cade Tereza (3:22)
04. Barbarella (3:14)
05. Pais Tropical (4:10)
06. Take It Easy My Brother Charles (2:35)
07. Descobri Que Sou Um Anjo (4:03)
08. Bebete Vaobora (2:34)
09. Quem Foi Que Roubou A Sopeira (3:07)
10. Que Pena (3:00)
11. Charles Anjo 45 (4:47)
.
 
EAC log
Exact Audio Copy V0.99 prebeta 5 from 4. May 2009
EAC extraction logfile from 3. January 2010, 2:34
Jorge Ben / Jorge Ben
Used drive : TDK CDRW5200B Adapter: 1 ID: 1
Read mode : Secure
Utilize accurate stream : Yes
Defeat audio cache : Yes
Make use of C2 pointers : No
Read offset correction : 6
Overread into Lead-In and Lead-Out : No
Fill up missing offset samples with silence : Yes
Delete leading and trailing silent blocks : No
Null samples used in CRC calculations : Yes
Used interface : Native Win32 interface for Win NT & 2000
Gap handling : Appended to previous track
Used output format : User Defined Encoder
Selected bitrate : 768 kBit/s
Quality : High
Add ID3 tag : No
Command line compressor : C:\Program Files\Exact Audio Copy\FLAC\FLAC.EXE
Additional command line options : -8 -V -T "ARTIST=%a" -T "TITLE=%t" -T "ALBUM=%g" -T "DATE=%y"
-T "TRACKNUMBER=%n" -T "TOTALTRACKS=%x" -T "GENRE=%m" -T "ALBUM ARTIST=%v"
-T "ALBUMARTIST=%v" -T "COMMENT=EAC V0.99 prebeta 4, Secure Mode, Test & Copy, Accurat
TOC of the extracted CD
Track | Start | Length | Start sector | End sector
---------------------------------------------------------
1 | 0:00.00 | 3:30.74 | 0 | 15823
2 | 3:30.74 | 3:31.10 | 15824 | 31658
3 | 7:02.09 | 3:23.03 | 31659 | 46886
4 | 10:25.12 | 3:14.40 | 46887 | 61476
5 | 13:39.52 | 4:10.50 | 61477 | 80276
6 | 17:50.27 | 2:35.50 | 80277 | 91951
7 | 20:26.02 | 4:03.50 | 91952 | 110226
8 | 24:29.52 | 2:35.37 | 110227 | 121888
9 | 27:05.14 | 3:08.08 | 121889 | 135996
10 | 30:13.22 | 3:01.42 | 135997 | 149613
11 | 33:14.64 | 4:50.67 | 149614 | 171430
Track 1
Filename C:\01 - Crioula.wav
Pre-gap length 0:00:02.00
Peak level 97.8 %
Track quality 100.0 %
Test CRC 55BEE3D2
Copy CRC 55BEE3D2
Track not present in AccurateRip database
Copy OK
Track 2
Filename C:\02 - Domingas.wav
Peak level 98.0 %
Track quality 100.0 %
Test CRC 51D500CE
Copy CRC 51D500CE
Track not present in AccurateRip database
Copy OK
Track 3
Filename C:\03 - Cade Tereza.wav
Peak level 98.3 %
Track quality 100.0 %
Test CRC 70E59701
Copy CRC 70E59701
Track not present in AccurateRip database
Copy OK
Track 4
Filename C:\04 - Barbarella.wav
Peak level 99.2 %
Track quality 100.0 %
Test CRC C2F6AA85
Copy CRC C2F6AA85
Track not present in AccurateRip database
Copy OK
Track 5
Filename C:\05 - Pais Tropical.wav
Peak level 99.1 %
Track quality 100.0 %
Test CRC FDE81566
Copy CRC FDE81566
Track not present in AccurateRip database
Copy OK
Track 6
Filename C:\06 - Take it easy my brother Charles.wav
Peak level 99.0 %
Track quality 100.0 %
Test CRC 69A3FA9F
Copy CRC 69A3FA9F
Track not present in AccurateRip database
Copy OK
Track 7
Filename C:\07 - Descobri que sou um anjo.wav
Peak level 98.8 %
Track quality 100.0 %
Test CRC 16D87253
Copy CRC 16D87253
Track not present in AccurateRip database
Copy OK
Track 8
Filename C:\08 - Bebete Vaobora.wav
Peak level 98.2 %
Track quality 100.0 %
Test CRC 679BAFF6
Copy CRC 679BAFF6
Track not present in AccurateRip database
Copy OK
Track 9
Filename C:\09 - Quem Foi que Roubou a Sopeira.wav
Peak level 98.4 %
Track quality 100.0 %
Test CRC 9E6FA009
Copy CRC 9E6FA009
Track not present in AccurateRip database
Copy OK
Track 10
Filename C:\10 - Que Pena.wav
Peak level 98.8 %
Track quality 100.0 %
Test CRC E9BEAA3E
Copy CRC E9BEAA3E
Track not present in AccurateRip database
Copy OK
Track 11
Filename C:\11 - Charles, Anjo 45.wav
Peak level 99.5 %
Track quality 99.9 %
Test CRC 7B07B97B
Copy CRC 7B07B97B
Track not present in AccurateRip database
Copy OK
None of the tracks are present in the AccurateRip database
No errors occurred
End of status report
 
*.cue
REM GENRE Latin
REM DATE 1969
REM DISCID 8708ED0B
REM COMMENT "ExactAudioCopy v0.99pb5"
PERFORMER "Jorge Ben"
TITLE "Jorge Ben"
FILE "01 - Crioula.wav" WAVE
TRACK 01 AUDIO
TITLE "Crioula"
PERFORMER "Jorge Ben"
INDEX 01 00:00:00
FILE "02 - Domingas.wav" WAVE
TRACK 02 AUDIO
TITLE "Domingas"
PERFORMER "Jorge Ben"
INDEX 01 00:00:00
FILE "03 - Cade Tereza.wav" WAVE
TRACK 03 AUDIO
TITLE "Cade Tereza"
PERFORMER "Jorge Ben"
INDEX 01 00:00:00
FILE "04 - Barbarella.wav" WAVE
TRACK 04 AUDIO
TITLE "Barbarella"
PERFORMER "Jorge Ben"
INDEX 01 00:00:00
FILE "05 - Pais Tropical.wav" WAVE
TRACK 05 AUDIO
TITLE "Pais Tropical"
PERFORMER "Jorge Ben"
INDEX 01 00:00:00
FILE "06 - Take it easy my brother Charles.wav" WAVE
TRACK 06 AUDIO
TITLE "Take it easy my brother Charles"
PERFORMER "Jorge Ben"
INDEX 01 00:00:00
FILE "07 - Descobri que sou um anjo.wav" WAVE
TRACK 07 AUDIO
TITLE "Descobri que sou um anjo"
PERFORMER "Jorge Ben"
INDEX 01 00:00:00
FILE "08 - Bebete Vaobora.wav" WAVE
TRACK 08 AUDIO
TITLE "Bebete Vaobora"
PERFORMER "Jorge Ben"
INDEX 01 00:00:00
FILE "09 - Quem Foi que Roubou a Sopeira.wav" WAVE
TRACK 09 AUDIO
TITLE "Quem Foi que Roubou a Sopeira"
PERFORMER "Jorge Ben"
INDEX 01 00:00:00
FILE "10 - Que Pena.wav" WAVE
TRACK 10 AUDIO
TITLE "Que Pena"
PERFORMER "Jorge Ben"
INDEX 01 00:00:00
FILE "11 - Charles, Anjo 45.wav" WAVE
TRACK 11 AUDIO
TITLE "Charles, Anjo 45"
PERFORMER "Jorge Ben"
INDEX 01 00:00:00
 
Audiochecker’s log
AUDIOCHECKER v2.0 beta (build 457) - by Dester - opdester@freemail.hu
~~~~~~~~~~~~~~~~~~~~~~~~~~~~~~~~~~
Started at: вторник, 06. 04. 2010. - 21:01.19
11 files found
01 -===- F:\My Documents\Music\Jorge Ben\lossless\Jorge Ben - 1969 - Jorge Ben (2009)\01 - Crioula.flac
Extracted successfully
Conclusion: this track is CDDA with probability 100%
Tempfile successfully deleted.
02 -===- F:\My Documents\Music\Jorge Ben\lossless\Jorge Ben - 1969 - Jorge Ben (2009)\02 - Domingas.flac
Extracted successfully
Conclusion: this track is CDDA with probability 100%
Tempfile successfully deleted.
03 -===- F:\My Documents\Music\Jorge Ben\lossless\Jorge Ben - 1969 - Jorge Ben (2009)\03 - Cade Tereza.flac
Extracted successfully
Conclusion: this track is CDDA with probability 100%
Tempfile successfully deleted.
04 -===- F:\My Documents\Music\Jorge Ben\lossless\Jorge Ben - 1969 - Jorge Ben (2009)\04 - Barbarella.flac
Extracted successfully
Conclusion: this track is CDDA with probability 100%
Tempfile successfully deleted.
05 -===- F:\My Documents\Music\Jorge Ben\lossless\Jorge Ben - 1969 - Jorge Ben (2009)\05 - Pais Tropical.flac
Extracted successfully
Conclusion: this track is CDDA with probability 100%
Tempfile successfully deleted.
06 -===- F:\My Documents\Music\Jorge Ben\lossless\Jorge Ben - 1969 - Jorge Ben (2009)\06 - Take it easy my brother Charles.flac
Extracted successfully
Conclusion: this track is CDDA with probability 100%
Tempfile successfully deleted.
07 -===- F:\My Documents\Music\Jorge Ben\lossless\Jorge Ben - 1969 - Jorge Ben (2009)\07 - Descobri que sou um anjo.flac
Extracted successfully
Conclusion: this track is CDDA with probability 100%
Tempfile successfully deleted.
08 -===- F:\My Documents\Music\Jorge Ben\lossless\Jorge Ben - 1969 - Jorge Ben (2009)\08 - Bebete Vaobora.flac
Extracted successfully
Conclusion: this track is CDDA with probability 100%
Tempfile successfully deleted.
09 -===- F:\My Documents\Music\Jorge Ben\lossless\Jorge Ben - 1969 - Jorge Ben (2009)\09 - Quem Foi que Roubou a Sopeira.flac
Extracted successfully
Conclusion: this track is CDDA with probability 100%
Tempfile successfully deleted.
10 -===- F:\My Documents\Music\Jorge Ben\lossless\Jorge Ben - 1969 - Jorge Ben (2009)\10 - Que Pena.flac
Extracted successfully
Conclusion: this track is CDDA with probability 100%
Tempfile successfully deleted.
11 -===- F:\My Documents\Music\Jorge Ben\lossless\Jorge Ben - 1969 - Jorge Ben (2009)\11 - Charles, Anjo 45.flac
Extracted successfully
Conclusion: this track is CDDA with probability 100%
Tempfile successfully deleted.
Finished at: вторник, 06. 04. 2010. - 21:14.12 (operation time: 0:12.53)
 
1970 ● Forca Bruta
Jorge Ben - Forca Bruta (1970)
Номер по каталогу: 73145181102
Продолжительность: 40:44
.
01. Oba La Vem Ela (4:14)
02. Ze Canjica (3:52)
03. Domenica Domingava Num Domingo Linda Toda De Branco (3:48)
04. Charles Jr. (6:08)
05. Pulo Pulo (2:49)
06. Apareceu Aparecida (3:16)
07. O Telefone Tocou Novamente (3:50)
08. Mulher Brasileira (4:25)
09. Terezinha (3:13)
10. Forca Bruta (5:09)
.
 
EAC log
Exact Audio Copy V0.99 prebeta 5 from 4. May 2009
EAC extraction logfile from 15. January 2010, 14:13
Jorge Ben / Forca Bruta
Used drive : TDK CDRW5200B Adapter: 1 ID: 1
Read mode : Secure
Utilize accurate stream : Yes
Defeat audio cache : Yes
Make use of C2 pointers : No
Read offset correction : 6
Overread into Lead-In and Lead-Out : No
Fill up missing offset samples with silence : Yes
Delete leading and trailing silent blocks : No
Null samples used in CRC calculations : Yes
Used interface : Native Win32 interface for Win NT & 2000
Gap handling : Appended to previous track
Used output format : User Defined Encoder
Selected bitrate : 768 kBit/s
Quality : High
Add ID3 tag : No
Command line compressor : C:\Program Files\Exact Audio Copy\FLAC\FLAC.EXE
Additional command line options : -8 -V -T "ARTIST=%a" -T "TITLE=%t" -T "ALBUM=%g" -T "DATE=%y"
-T "TRACKNUMBER=%n" -T "TOTALTRACKS=%x" -T "GENRE=%m" -T "ALBUM ARTIST=%v" -T "ALBUMARTIST=%v"
-T "COMMENT=EAC V0.99 prebeta 4, Secure Mode, Test & Copy, Accurat
TOC of the extracted CD
Track | Start | Length | Start sector | End sector
---------------------------------------------------------
1 | 0:00.00 | 4:12.38 | 0 | 18937
2 | 4:12.38 | 3:50.63 | 18938 | 36250
3 | 8:03.26 | 3:47.23 | 36251 | 53298
4 | 11:50.49 | 6:06.20 | 53299 | 80768
5 | 17:56.69 | 2:47.59 | 80769 | 93352
6 | 20:44.53 | 3:15.12 | 93353 | 107989
7 | 23:59.65 | 3:48.71 | 107990 | 125160
8 | 27:48.61 | 4:24.09 | 125161 | 144969
9 | 32:12.70 | 3:11.33 | 144970 | 159327
10 | 35:24.28 | 5:08.31 | 159328 | 182458
Track 1
Filename C:\01 - Oba, la vem ela.wav
Pre-gap length 0:00:02.00
Peak level 100.0 %
Track quality 100.0 %
Test CRC 4D6B5753
Copy CRC 4D6B5753
Track not present in AccurateRip database
Copy OK
Track 2
Filename C:\02 - Ze Canjica.wav
Peak level 100.0 %
Track quality 100.0 %
Test CRC 5C11D7BB
Copy CRC 5C11D7BB
Track not present in AccurateRip database
Copy OK
Track 3
Filename C:\03 - Domenica, domingava num domingo linda toda de branco.wav
Peak level 100.0 %
Track quality 100.0 %
Test CRC 318B707E
Copy CRC 318B707E
Track not present in AccurateRip database
Copy OK
Track 4
Filename C:\04 - Charles Jr..wav
Peak level 100.0 %
Track quality 99.9 %
Test CRC 6A89E993
Copy CRC 6A89E993
Track not present in AccurateRip database
Copy OK
Track 5
Filename C:\05 - Pulo, pulo.wav
Peak level 100.0 %
Track quality 100.0 %
Test CRC 2E287AD2
Copy CRC 2E287AD2
Track not present in AccurateRip database
Copy OK
Track 6
Filename C:\06 - Apareceu, aparecida.wav
Peak level 100.0 %
Track quality 100.0 %
Test CRC 22E9B2DE
Copy CRC 22E9B2DE
Track not present in AccurateRip database
Copy OK
Track 7
Filename C:\07 - O telefono tocou novamente.wav
Peak level 99.3 %
Track quality 100.0 %
Test CRC 8F74D6E9
Copy CRC 8F74D6E9
Track not present in AccurateRip database
Copy OK
Track 8
Filename C:\08 - Muhler brasileira.wav
Peak level 100.0 %
Track quality 100.0 %
Test CRC 13D14DC3
Copy CRC 13D14DC3
Track not present in AccurateRip database
Copy OK
Track 9
Filename C:\09 - Terezinha.wav
Peak level 99.7 %
Track quality 100.0 %
Test CRC 24695617
Copy CRC 24695617
Track not present in AccurateRip database
Copy OK
Track 10
Filename C:\10 - Forca bruta.wav
Peak level 99.2 %
Track quality 100.0 %
Test CRC C8B0C80D
Copy CRC C8B0C80D
Track not present in AccurateRip database
Copy OK
None of the tracks are present in the AccurateRip database
No errors occurred
End of status report
 
*.cue
REM GENRE Samba
REM DATE 1970
REM DISCID 7909800A
REM COMMENT "ExactAudioCopy v0.99pb5"
PERFORMER "Jorge Ben"
TITLE "Forca Bruta"
FILE "01 - Oba, la vem ela.wav" WAVE
TRACK 01 AUDIO
TITLE "Oba, la vem ela"
PERFORMER "Jorge Ben"
INDEX 01 00:00:00
FILE "02 - Ze Canjica.wav" WAVE
TRACK 02 AUDIO
TITLE "Ze Canjica"
PERFORMER "Jorge Ben"
INDEX 01 00:00:00
FILE "03 - Domenica, domingava num domingo linda toda de branco.wav" WAVE
TRACK 03 AUDIO
TITLE "Domenica, domingava num domingo linda toda de branco"
PERFORMER "Jorge Ben"
INDEX 01 00:00:00
FILE "04 - Charles Jr..wav" WAVE
TRACK 04 AUDIO
TITLE "Charles Jr."
PERFORMER "Jorge Ben"
INDEX 01 00:00:00
FILE "05 - Pulo, pulo.wav" WAVE
TRACK 05 AUDIO
TITLE "Pulo, pulo"
PERFORMER "Jorge Ben"
INDEX 01 00:00:00
FILE "06 - Apareceu, aparecida.wav" WAVE
TRACK 06 AUDIO
TITLE "Apareceu, aparecida"
PERFORMER "Jorge Ben"
INDEX 01 00:00:00
FILE "07 - O telefono tocou n
19:19
325
Нет комментариев. Ваш будет первым!