Поиск

(Afro-beat) Pax Nicholas And The Nettey Family - Na Teef Know De Road Of Teef (1973) - 2009, FLAC (image+.cue) lossless

(Afro-beat) Pax Nicholas And The Nettey Family - Na Teef Know De Road Of Teef (1973) - 2009, FLAC (image+.cue) lossless
Треклист:
Pax Nicholas And The Nettey Family / Na Teef Know De Road Of Teef (1973)
Жанр: Afrobeat
Страна-производитель диска: US
Год издания диска: 2009
Издатель (лейбл): Daptone Records
Номер по каталогу: DAP-017
Аудио кодек: FLAC (*.flac)
Тип рипа: image+.cue
Битрейт аудио: lossless
Продолжительность: 33:24
Источник (релизер): cd
Наличие сканов в содержимом раздачи: нет
Треклист:
01 Na Teef Know De Road Of Teef (11:48)
02 Ataa Onukpa (5:17)
03 Na Six Feet (9:35)
04 You (6:53)
 
Лог создания рипа
Exact Audio Copy V0.99 prebeta 5 from 4. May 2009
EAC extraction logfile from 27. November 2010, 22:14
Pax Nicholas And The Nettey Family / Na Teef Know De Road Of Teef
Used drive : PIONEER DVD-RW DVR-111 Adapter: 2 ID: 0
Read mode : Secure
Utilize accurate stream : Yes
Defeat audio cache : Yes
Make use of C2 pointers : No
Read offset correction : 48
Overread into Lead-In and Lead-Out : No
Fill up missing offset samples with silence : Yes
Delete leading and trailing silent blocks : No
Null samples used in CRC calculations : Yes
Used interface : Installed external ASPI interface
Used output format : User Defined Encoder
Selected bitrate : 1024 kBit/s
Quality : High
Add ID3 tag : No
Command line compressor : C:\Program Files\Exact Audio Copy\FLAC\FLAC.EXE
Additional command line options : -8 -V -T "ARTIST=%a" -T "ALBUM=%g" -T "DATE=%y" -T "GENRE=%m" %s -o %d
TOC of the extracted CD
Track | Start | Length | Start sector | End sector
---------------------------------------------------------
1 | 0:00.00 | 11:48.24 | 0 | 53123
2 | 11:48.24 | 5:17.28 | 53124 | 76926
3 | 17:05.52 | 9:25.29 | 76927 | 119330
4 | 26:31.06 | 6:53.09 | 119331 | 150314
Range status and errors
Selected range
Filename J:\temp\nnm\Pax Nicholas & Nettey Family - Na Teef Know De Road Of Teef.wav
Peak level 100.0 %
Range quality 100.0 %
Test CRC 7ED4A512
Copy CRC 7ED4A512
Copy OK
No errors occurred
AccurateRip summary
Track 1 accurately ripped (confidence 1) [AC72B7AD]
Track 2 cannot be verified as accurate (confidence 1) [99EBD843], AccurateRip returned [FA99EB1E]
Track 3 cannot be verified as accurate (confidence 1) [2D5FDB2B], AccurateRip returned [03A56BA0]
Track 4 cannot be verified as accurate (confidence 1) [426987E2], AccurateRip returned [A92F23E0]
1 track(s) accurately ripped
3 track(s) could not be verified as accurate
Some tracks could not be verified as accurate
End of status report
19:21
217
Нет комментариев. Ваш будет первым!