Поиск

(Latin Jazz) Tito Puente - Dance Mania. Volume 1 - 1958, FLAC (tracks+.cue), lossless

Треклист:
Tito Puente - Dance Mania. Volume 1
Жанр: Jazz
Год выпуска диска: 1958
Производитель диска: США
Аудио кодек: FLAC
Тип рипа: tracks+.cue
Битрейт аудио: lossless
Продолжительность: 40 минут
 
Wikipedia, eng
Tito Puente Sr. served in the Navy for three years during World War II after being drafted in 1942. He was discharged with a Presidential Commendation for serving in nine battles. The GI Bill allowed him to study music at Juilliard School of Music, where he completed a formal education in conducting, orchestration and theory. In 1969, he received the key to the City of New York from former Mayor John Lindsay. In 1992 he was inducted into the National Congressional Record, and in 1993 he received the Smithsonian Medal.
Puente guest-starred as himself in a famous two-part episode of The Simpsons.
During the 1950s, Puente was at the height of his popularity, and helped to bring Afro-Cuban and Caribbean sounds, like mambo, son, and cha-cha-cha, to mainstream audiences (he was so successful playing popular Afro-Cuban rhythms that many people mistakenly identify him as Cuban). Dance Mania, possibly Puente's most well known album was released in 1958. Later, he moved into more diverse sounds, including pop music, bossa nova and others, eventually settling down with a fusion of Afro-Cuban and Latin jazz genres that became known as "salsa" (a term that he disliked). In 1979 Puente won the first of five Grammy Awards for the albums A Tribute to Benny Morй, On Broadway, Mambo Diablo, and Goza Mi Timbal. In 1990, Puente was awarded the "James Smithson Bicentennial Medal." He was also awarded a Grammy at the first Latin Grammy Awards, winning Best Traditional Tropical Album for Mambo Birdland. He was posthumously awarded the Grammy Lifetime Achievement Award in 2000. After a heart attack following a show in Puerto Rico, Puente had heart surgery in New York City, from which he never recovered. He died on May 31, 2000, just a few months after shooting for the music video Calle 54, in which Puente was wearing an all-white outfit with his band.
Tito Puente's name is often mentioned in a television production called "La Epoca,", a film about the Palladium era in New York, Afro-Cuban music and rhythms, Mambo and Salsa as dances and music and much more. The film discusses many of Tito Puente's as well as Arsenio Rodriguez's contributions, and features interviews with some of the musicians Puente recorded with such as Alfonso "El Panameno" Joseph, Luis Mangual, Julian Lianos and others.
When Tito Puente passed away in the year 2000, at the age of 77, he was known to younger generations as the author of the Santana-covered classic rock/R&B radio staple "Oye Como Va" and also for appearing on a seasonending cliffhanger episode of animated pop culture touchstone "The Simpsons". But prior to that, the timbales master-bandleader-composer
enjoyed life as the King of Mambo. And "Dance Mania", his best-selling album - and his first devoted wholly to dance music - shows why. Ouente hat already been leading a big band for more than a decade before going into a New York City studio to record "Dance Mania". Hipsters had long known of the Purto Rican-American's danceable synthesis of Afro-Cuban
rhythms, jazz principles, and the musical traditions of his ancestry. Now the rest of the world was beginning to catch on.
"Dance Mania" also marked the recorded debut of Puente Orchestra vocalist Santitod Colуn, whose engaging voice could fire up or seduce an audience. "El Cayuco," the opening track, urbanely slithers through the uptown streets
with a tightly orchestrated syncopation propelled by Puente's hypnotic timbales work and spot-on unified horn blasts and lines. Puente brings out his tuned percussion skills on a couple of other standout and stylistically diverse
tracks: the instrumental "Hong Kong Mambo" has his slick marimba playing at its fun, cosmopolitan core, while on the regal "Estoy Siempre Junto A Ti" he frames the entire piece with his fluid, often sustained vibraphone flows. (YK)
Dance Mania is probably Puente's best-known album, appearing as it does in several reissue forms and having inspired subsequent More Dance Mania and Dance Mania '80s titles. Part of the reason is that it's his first major album of dance music, in stereo, on RCA. As with most of the rest of his work for the label, it more than lives up to expectations. Seven of its 12 tracks are Puente's own, and, of the rest, two are from legendary conga star Francisco Aguabella. There isn't a weak track in the bunch, and most feature singing and instrumental solos. Dance Mania is a cohesive collection of mambo, guaguanco, guaracha, and son montuno, plus some equally lively cha cha cha and bolero tracks. While it probably does not deserve all of its reputation (unless one gives similar credit to some other Puente albums), it is essential. ~ Tony Wilds, All Music Guide

Трэклист:
01 El Cayuco (2:38)
02 Complicación (3:23)
03 3-D Mambo (2:26)
04 Llegó Miján (3:14)
05 Cuando te Vea (4:16)
06 Hong Kong Mambo (3:48)
07 Mambo Gozón (2:48)
08 Mi chiquita quiere Bembé (3:58)
09 Varsity Drag (2:53)
10 Estoy siempre junto a Tí (3:14)
11 Agua limpia todo (2:57)
12 Saca tu mujer (3:05)
Доп. информация: Релиз с ваты. Лог отсутствует, есть только проведённая мною проверка с помощью Tau Analizer.
 
Cue
REM GENRE Latin
REM DATE 1957
REM DISCID A8090F0C
REM COMMENT "ExactAudioCopy v0.95b4"
PERFORMER "Tito Puente"
TITLE "Dance Mania Vol. 1"
FILE "01 - Tito Puente - El Cayuco.wav" WAVE
TRACK 01 AUDIO
TITLE "El Cayuco"
PERFORMER "Tito Puente"
INDEX 01 00:00:00
TRACK 02 AUDIO
TITLE "Complicaciуn"
PERFORMER "Tito Puente"
INDEX 00 02:35:52
FILE "02 - Tito Puente - Complicaciуn.wav" WAVE
INDEX 01 00:00:00
TRACK 03 AUDIO
TITLE "3-D Mambo"
PERFORMER "Tito Puente"
INDEX 00 03:20:66
FILE "03 - Tito Puente - 3-D Mambo.wav" WAVE
INDEX 01 00:00:00
TRACK 04 AUDIO
TITLE "Llegу Mijбn"
PERFORMER "Tito Puente"
INDEX 00 02:23:35
FILE "04 - Tito Puente - Llegу Mijбn.wav" WAVE
INDEX 01 00:00:00
TRACK 05 AUDIO
TITLE "Cuando te Vea"
PERFORMER "Tito Puente"
INDEX 00 03:11:57
FILE "05 - Tito Puente - Cuando te Vea.wav" WAVE
INDEX 01 00:00:00
TRACK 06 AUDIO
TITLE "Hong Kong Mambo"
PERFORMER "Tito Puente"
INDEX 00 04:13:21
FILE "06 - Tito Puente - Hong Kong Mambo.wav" WAVE
INDEX 01 00:00:00
TRACK 07 AUDIO
TITLE "Mambo Gozуn"
PERFORMER "Tito Puente"
INDEX 00 03:45:70
FILE "07 - Tito Puente - Mambo Gozуn.wav" WAVE
INDEX 01 00:00:00
TRACK 08 AUDIO
TITLE "Mi chiquita quiere Bembй"
PERFORMER "Tito Puente"
INDEX 00 02:45:41
FILE "08 - Tito Puente - Mi chiquita quiere Bembй.wav" WAVE
INDEX 01 00:00:00
TRACK 09 AUDIO
TITLE "Varsity Drag"
PERFORMER "Tito Puente"
INDEX 00 03:55:28
FILE "09 - Tito Puente - Varsity Drag.wav" WAVE
INDEX 01 00:00:00
TRACK 10 AUDIO
TITLE "Estoy siempre junto a Tн"
PERFORMER "Tito Puente"
INDEX 00 02:50:40
FILE "10 - Tito Puente - Estoy siempre junto a Tн.wav" WAVE
INDEX 01 00:00:00
TRACK 11 AUDIO
TITLE "Agua limpia todo"
PERFORMER "Tito Puente"
INDEX 00 03:11:65
FILE "11 - Tito Puente - Agua limpia todo.wav" WAVE
INDEX 01 00:00:00
TRACK 12 AUDIO
TITLE "Saca tu mujer"
PERFORMER "Tito Puente"
INDEX 00 02:54:58
FILE "12 - Tito Puente - Saca tu mujer.wav" WAVE
INDEX 01 00:00:00
 
Проверка CDDA
12:28
422
Нет комментариев. Ваш будет первым!