Поиск

(Latin Jazz) Sabu - Palo Congo - 1957, FLAC (tracks+.cue), lossless

Треклист:
Sabu - Palo Congo
Жанр: Jazz
Год выпуска диска: 1957
Производитель диска: США
Аудио кодек: FLAC
Тип рипа: tracks+.cue
Битрейт аудио: lossless
Продолжительность: 40 минут
 
Об альбоме (англ.)
Chano Pozo nailed the Afro-Cuban conga drum into jazz playing with Dizzy
Gillespie's orchestra in the late 1940s. In doing so, he opened a door for such
talented percussionists as Louis "Sabu" Martinez, who replaced him in Diz's
band following Pozo's death in 1948.
Equipped with a powerful spirit and slap, Sabu triumphed as a session
sideman for Blue Note Records, working on Art Blakey's "Orgy In Rhythm"
and "Holiday For Skins" among others. As A leader on "Palo Congo", he
served up a variety of beats, drawing on his mixed Spanish/African/West
Indian heritage.
Engineered by Rudy Van Gelder, the recording captures the fury of the
Cuban rumba and son styles in a studio performance. Martinez hosted a band
that included Ray Romero, who played with Miguelito Valdes, and the tres (a
Cuban folk guitar with three doubled-up strings) of the prolific Arsenio
Rodriguez, a pillar of modern salsa. Musicians chosen largely from the band of
arsenio Rodriguez interact with Sabu in warm, non-distorted analog. The
recording is mono, but its judicious balance allows drums, voices, and acoustic
bass to emerge individually.
Sabu's singing opens "El Cumbanchero," by Rafael Hernandez, with its
infectious melody. The genius of Arsenio permeates through "Rhapsodia Del
Maravilloso" where he introduces variations on "El Manisero." The tone of his
tres guitar has a soulful, funky timbre.
Sabu hinself delivers tough-fisted solos on "Palo Congo", while interweaving
Santeria prayers into an album that illuminates his roots as a native New
Yorker living in El Barrio of Spanish Harlem.

Трэклист:
01 El Cumbanchero (5:40)
02 Billumba-Palo Congo (6:09)
03 Choferito-Plena (4:05)
04 Asabache (4:25)
05 Simba (5:58)
06 Rhapsodia Del Maravilloso (4:42)
07 Aggo Elegua (4:32)
08 Tribilin Cantore (5:20)
Доп. информация: Релиз с ваты. Лог с куем прилагается, проверка на CDDA с помощью Tau Analizer - тоже.
 
Cue
REM GENRE Latin
REM DATE 1957
REM DISCID 5C099208
REM COMMENT "ExactAudioCopy v0.99pb5"
FILE "01 - El Cumbanchero.wav" WAVE
TRACK 01 AUDIO
INDEX 01 00:00:00
TRACK 02 AUDIO
INDEX 00 05:38:40
FILE "02 - Billumba-Palo Congo.wav" WAVE
INDEX 01 00:00:00
TRACK 03 AUDIO
INDEX 00 06:07:25
FILE "03 - Choferito-Plena.wav" WAVE
INDEX 01 00:00:00
TRACK 04 AUDIO
INDEX 00 04:02:63
FILE "04 - Asabache.wav" WAVE
INDEX 01 00:00:00
TRACK 05 AUDIO
INDEX 00 04:23:27
FILE "05 - Simba.wav" WAVE
INDEX 01 00:00:00
TRACK 06 AUDIO
INDEX 00 05:56:17
FILE "06 - Rhapsodia Del Maravilloso.wav" WAVE
INDEX 01 00:00:00
TRACK 07 AUDIO
INDEX 00 04:39:55
FILE "07 - Aggo Elegua.wav" WAVE
INDEX 01 00:00:00
TRACK 08 AUDIO
INDEX 00 04:29:30
FILE "08 - Tribilin Cantore.wav" WAVE
INDEX 01 00:00:00
 
Log EAC
Exact Audio Copy V0.99 prebeta 5 from 4. May 2009
EAC extraction logfile from 12. February 2010, 20:19
Sabu / Palo Congo
Used drive : TSSTcorpDVD+-RW TS-H653F Adapter: 1 ID: 0
Read mode : Secure
Utilize accurate stream : Yes
Defeat audio cache : Yes
Make use of C2 pointers : No
Read offset correction : 6
Overread into Lead-In and Lead-Out : No
Fill up missing offset samples with silence : Yes
Delete leading and trailing silent blocks : No
Null samples used in CRC calculations : Yes
Used interface : Native Win32 interface for Win NT & 2000
Gap handling : Appended to previous track
Used output format : User Defined Encoder
Selected bitrate : 128 kBit/s
Quality : High
Add ID3 tag : No
Command line compressor : C:\Program Files\Exact Audio Copy\Flac\flac.exe
Additional command line options : -V -8 -T "artist=%a" -T "title=%t" -T "album=%g" -T "date=%y" -T "tracknumber=%n" -T "genre=%m" %s
TOC of the extracted CD
Track | Start | Length | Start sector | End sector
---------------------------------------------------------
1 | 0:00.00 | 5:39.72 | 0 | 25496
2 | 5:39.72 | 6:09.15 | 25497 | 53186
3 | 11:49.12 | 4:04.73 | 53187 | 71559
4 | 15:54.10 | 4:25.05 | 71560 | 91439
5 | 20:19.15 | 5:58.27 | 91440 | 118316
6 | 26:17.42 | 4:41.63 | 118317 | 139454
7 | 30:59.30 | 4:31.45 | 139455 | 159824
8 | 35:31.00 | 5:19.62 | 159825 | 183811
Track 1
Filename C:\Ripped for torrents\Sabu - 1957 - Palo Congo - FLAC\01 - El Cumbanchero.wav
Pre-gap length 0:00:02.00
Peak level 98.8 %
Track quality 100.0 %
Test CRC 00A97095
Copy CRC 00A97095
Accurately ripped (confidence 2) [8E1730A0]
Copy OK
Track 2
Filename C:\Ripped for torrents\Sabu - 1957 - Palo Congo - FLAC\02 - Billumba-Palo Congo.wav
Pre-gap length 0:00:01.42
Peak level 98.4 %
Track quality 100.0 %
Test CRC 16AE63BE
Copy CRC 16AE63BE
Accurately ripped (confidence 2) [C52DD25D]
Copy OK
Track 3
Filename C:\Ripped for torrents\Sabu - 1957 - Palo Congo - FLAC\03 - Choferito-Plena.wav
Pre-gap length 0:00:01.86
Peak level 98.8 %
Track quality 100.0 %
Test CRC 95391368
Copy CRC 95391368
Accurately ripped (confidence 2) [7BB45887]
Copy OK
Track 4
Filename C:\Ripped for torrents\Sabu - 1957 - Palo Congo - FLAC\04 - Asabache.wav
Pre-gap length 0:00:02.13
Peak level 98.8 %
Track quality 100.0 %
Test CRC 28B42D50
Copy CRC 28B42D50
Accurately ripped (confidence 2) [99992AF1]
Copy OK
Track 5
Filename C:\Ripped for torrents\Sabu - 1957 - Palo Congo - FLAC\05 - Simba.wav
Pre-gap length 0:00:01.70
Peak level 98.6 %
Track quality 100.0 %
Test CRC 283B4B42
Copy CRC 283B4B42
Accurately ripped (confidence 2) [EC29A73F]
Copy OK
Track 6
Filename C:\Ripped for torrents\Sabu - 1957 - Palo Congo - FLAC\06 - Rhapsodia Del Maravilloso.wav
Pre-gap length 0:00:02.13
Peak level 98.8 %
Track quality 100.0 %
Test CRC F4B60A8C
Copy CRC F4B60A8C
Accurately ripped (confidence 2) [5987FAA0]
Copy OK
Track 7
Filename C:\Ripped for torrents\Sabu - 1957 - Palo Congo - FLAC\07 - Aggo Elegua.wav
Pre-gap length 0:00:02.10
Peak level 98.8 %
Track quality 100.0 %
Test CRC 7F9024CC
Copy CRC 7F9024CC
Accurately ripped (confidence 2) [97DB8A2D]
Copy OK
Track 8
Filename C:\Ripped for torrents\Sabu - 1957 - Palo Congo - FLAC\08 - Tribilin Cantore.wav
Pre-gap length 0:00:02.20
Peak level 98.8 %
Track quality 100.0 %
Test CRC 8A695AE7
Copy CRC 8A695AE7
Accurately ripped (confidence 2) [243DA93B]
Copy OK
All tracks accurately ripped
No errors occurred
End of status report
 
Проверка CDDA
12:28
742
Нет комментариев. Ваш будет первым!