Поиск

(Jazz-Pop, Brazilian Jazz, Latin Jazz) Tania Maria - No Comment (1995), FLAC (tracks+.cue), lossless

(Jazz-Pop, Brazilian Jazz, Latin Jazz) Tania Maria - No Comment (1995), FLAC (tracks+.cue), lossless
Треклист:
Tania Maria - No Comment
Жанр: Jazz-Pop, Brazilian Jazz, Latin Jazz
Дата записи: Feb 1995
Дата выпуска: 1995
Производитель диска, номер, страна: TKM Records 5001-2
Аудио кодек: FLAC
Тип рипа: (tracks + .cue)
Битрейт аудио: lossless
Включает: Full artwork
Продолжительность: 55:03
Источник: коллекция Л Рендера
Риппер: Мой рип
Трэклист:
1. Pelham Melody (Reis) - 4:32
2. Liquid Groove (Reis) - 4:06
3. Keep in Mind (Reis) - 4:39
4. Desire (Reis) - 4:02
5. Marvin My Love (Reis) - 3:45
6. Who Knows? (Correa, Reis) - 3:31
7. Jack Hammer (Maria, Reis) - 4:45
8. Gotcha (Correa, Reis) - 5:12
9. Fanatic (Maria) - 8:30
10. Bali (Reis) - 8:38
11. Something for Now (Reis) - 3:16
Состав:
Don Alias - Percussion
Sergio Brandao - Bass
Sammy Figueroa - Percussion
Tom Kennedy - Bass
Tania Maria - Arranger, Keyboards, Vocals
Portinho - Drums
Ricky Sebastian - Drums
Mitch Stein - Guitar
 
~ Stacia Proefrock, All Music Guide
Brazilian jazz vocalist and pianist Tania Maria's career has spanned over three decades, starting when she was just 13 and she fronted a band of professional musicians organized by her father, who was a metal worker and gifted amateur musician. He had encouraged her to study piano so that she could accompany him on his weekend jam sessions, but her musical talent grew beyond those small performances. Maria's four sisters also had musical talents, but they eventually grew from their impoverished roots to become professionals, a path that Maria was on herself as well. She attended law school for two years, then married and had a family. The pull of music was too strong, however, and in 1971 she released her first album in Brazil, Olha Quem Chega. In the late '70s she moved to Paris and expanded her career, touring internationally. A date in Australia brought her to the attention of guitarist Charlie Byrd, who hooked her up with Carl Jefferson, head of Concord Records. The label provided her with her first international commercial success with her 1984 album Come With Me, and continued to record her music and issue it to an international audience. Based in New York since the '80s, Maria still sings the pop and blues-influenced music that brought her fame, releasing several albums in the '90s. Her first album of the new millennium, Viva Brazil, was also released by Concord Records.
 
Cue
REM GENRE jazz
REM DATE 1995
REM DISCID 880CE70B
REM COMMENT "ExactAudioCopy v0.95b4"
PERFORMER "Tania Maria"
TITLE "No Comment"
FILE "01 - Pelham Melody.wav" WAVE
TRACK 01 AUDIO
TITLE "Pelham Melody"
PERFORMER "Tania Maria"
PREGAP 00:00:32
INDEX 01 00:00:00
TRACK 02 AUDIO
TITLE "Liquid Groove"
PERFORMER "Tania Maria"
INDEX 00 04:33:10
FILE "02 - Liquid Groove.wav" WAVE
INDEX 01 00:00:00
TRACK 03 AUDIO
TITLE "Keep In Mind"
PERFORMER "Tania Maria"
INDEX 00 04:04:70
FILE "03 - Keep In Mind.wav" WAVE
INDEX 01 00:00:00
TRACK 04 AUDIO
TITLE "Desire"
PERFORMER "Tania Maria"
INDEX 00 04:38:40
FILE "04 - Desire.wav" WAVE
INDEX 01 00:00:00
TRACK 05 AUDIO
TITLE "Marvin My Love"
PERFORMER "Tania Maria"
INDEX 00 04:02:20
FILE "05 - Marvin My Love.wav" WAVE
INDEX 01 00:00:00
TRACK 06 AUDIO
TITLE "Who Knows"
PERFORMER "Tania Maria"
INDEX 00 03:44:65
FILE "06 - Who Knows.wav" WAVE
INDEX 01 00:00:00
TRACK 07 AUDIO
TITLE "Jack Hammer"
PERFORMER "Tania Maria"
INDEX 00 03:31:10
FILE "07 - Jack Hammer.wav" WAVE
INDEX 01 00:00:00
TRACK 08 AUDIO
TITLE "Gotcha"
PERFORMER "Tania Maria"
INDEX 00 04:44:00
FILE "08 - Gotcha.wav" WAVE
INDEX 01 00:00:00
TRACK 09 AUDIO
TITLE "Fanatic"
PERFORMER "Tania Maria"
INDEX 00 05:11:63
FILE "09 - Fanatic.wav" WAVE
INDEX 01 00:00:00
FILE "10 - Bali.wav" WAVE
TRACK 10 AUDIO
TITLE "Bali"
PERFORMER "Tania Maria"
INDEX 01 00:00:00
TRACK 11 AUDIO
TITLE "Something For Now"
PERFORMER "Tania Maria"
INDEX 00 08:37:25
FILE "11 - Something For Now.wav" WAVE
INDEX 01 00:00:00
 
EAC log
EAC extraction logfile from 18. February 2007, 22:20 for CD
Tania Maria / No Comment
Used drive : _NEC DVD_RW ND-3550A Adapter: 0 ID: 1
Read mode : Secure with NO C2, accurate stream, disable cache
Read offset correction : 48
Overread into Lead-In and Lead-Out : No
Used output format : C:\Program Files\FLAC\flac.exe (User Defined Encoder)
128 kBit/s
Additional command line options : -V -8 -T "artist=%a" -T "title=%t" -T "album=%g" -T "date=%y" -T "tracknumber=%n" -T "genre=%m" %s
Other options :
Fill up missing offset samples with silence : Yes
Delete leading and trailing silent blocks : No
Installed external ASPI interface
Track 1
Filename D:\music\rip\Tania Maria - No Comment (1995)[FLAC]\01 - Pelham Melody.wav
Pre-gap length 0:00:02.42
Peak level 100.0 %
Track quality 100.0 %
Test CRC 3F7E5DEB
Copy CRC 3F7E5DEB
Copy OK
Track 2
Filename D:\music\rip\Tania Maria - No Comment (1995)[FLAC]\02 - Liquid Groove.wav
Pre-gap length 0:00:00.37
Peak level 100.0 %
Track quality 99.9 %
Test CRC 711BEF0D
Copy CRC 711BEF0D
Copy OK
Track 3
Filename D:\music\rip\Tania Maria - No Comment (1995)[FLAC]\03 - Keep In Mind.wav
Pre-gap length 0:00:01.42
Peak level 100.0 %
Track quality 99.9 %
Test CRC B3D42D52
Copy CRC B3D42D52
Copy OK
Track 4
Filename D:\music\rip\Tania Maria - No Comment (1995)[FLAC]\04 - Desire.wav
Pre-gap length 0:00:01.37
Peak level 100.0 %
Track quality 100.0 %
Test CRC D62946A8
Copy CRC D62946A8
Copy OK
Track 5
Filename D:\music\rip\Tania Maria - No Comment (1995)[FLAC]\05 - Marvin My Love.wav
Pre-gap length 0:00:00.29
Peak level 100.0 %
Track quality 100.0 %
Test CRC 863563A8
Copy CRC 863563A8
Copy OK
Track 6
Filename D:\music\rip\Tania Maria - No Comment (1995)[FLAC]\06 - Who Knows.wav
Pre-gap length 0:00:00.04
Peak level 100.0 %
Track quality 100.0 %
Test CRC 763D9EC0
Copy CRC 763D9EC0
Copy OK
Track 7
Filename D:\music\rip\Tania Maria - No Comment (1995)[FLAC]\07 - Jack Hammer.wav
Pre-gap length 0:00:02.00
Peak level 100.0 %
Track quality 100.0 %
Test CRC D1A10DAA
Copy CRC D1A10DAA
Copy OK
Track 8
Filename D:\music\rip\Tania Maria - No Comment (1995)[FLAC]\08 - Gotcha.wav
Pre-gap length 0:00:00.96
Peak level 100.0 %
Track quality 100.0 %
Test CRC 3A60C959
Copy CRC 3A60C959
Copy OK
Track 9
Filename D:\music\rip\Tania Maria - No Comment (1995)[FLAC]\09 - Fanatic.wav
Pre-gap length 0:00:00.66
Peak level 100.0 %
Track quality 100.0 %
Test CRC 908C7F30
Copy CRC 908C7F30
Copy OK
Track 10
Filename D:\music\rip\Tania Maria - No Comment (1995)[FLAC]\10 - Bali.wav
Peak level 100.0 %
Track quality 100.0 %
Test CRC CEB09D71
Copy CRC CEB09D71
Copy OK
Track 11
Filename D:\music\rip\Tania Maria - No Comment (1995)[FLAC]\11 - Something For Now.wav
Pre-gap length 0:00:00.60
Peak level 100.0 %
Track quality 100.0 %
Test CRC 0AA3D0C4
Copy CRC 0AA3D0C4
Copy OK
No errors occured
End of status report
 
auCDtect log
[img]1206791702 48246620 01 - Pelham Melody.wav
1856325381 43457948 02 - Liquid Groove.wav
310423877 49375580 03 - Keep In Mind.wav
517860461 42787628 04 - Desire.wav
2301956477 39673580 05 - Marvin My Love.wav
3094717277 37596764 06 - Who Knows.wav
3667695958 50266988 07 - Jack Hammer.wav
3720761442 55126220 08 - Gotcha.wav
511427205 90074588 09 - Fanatic.wav
3246748115 91363484 10 - Bali.wav
715904879 34687340 11 - Something For Now.wav
auCDtect: CD records authenticity detector, version 0.8.2
Copyright (c) 2004 Oleg Berngardt. All rights reserved.
Copyright (c) 2004 Alexander Djourik. All rights reserved.
------------------------------------------------------------
Processing file: [01 - Pelham Melody.wav]
------------------------------------------------------------
This track looks like CDDA with probability 100%
------------------------------------------------------------
Processing file: [02 - Liquid Groove.wav]
------------------------------------------------------------
This track looks like CDDA with probability 100%
------------------------------------------------------------
Processing file: [03 - Keep In Mind.wav]
------------------------------------------------------------
This track looks like CDDA with probability 100%
------------------------------------------------------------
Processing file: [04 - Desire.wav]
------------------------------------------------------------
This track looks like CDDA with probability 100%
------------------------------------------------------------
Processing file: [05 - Marvin My Love.wav]
------------------------------------------------------------
This track looks like CDDA with probability 100%
------------------------------------------------------------
Processing file: [06 - Who Knows.wav]
------------------------------------------------------------
This track looks like CDDA with probability 100%
------------------------------------------------------------
Processing file: [07 - Jack Hammer.wav]
------------------------------------------------------------
This track looks like CDDA with probability 100%
------------------------------------------------------------
Processing file: [08 - Gotcha.wav]
------------------------------------------------------------
This track looks like CDDA with probability 100%
------------------------------------------------------------
Processing file: [09 - Fanatic.wav]
------------------------------------------------------------
This track looks like CDDA with probability 100%
------------------------------------------------------------
Processing file: [10 - Bali.wav]
------------------------------------------------------------
This track looks like CDDA with probability 100%
------------------------------------------------------------
Processing file: [11 - Something For Now.wav]
------------------------------------------------------------
This track looks like CDDA with probability 100%
------------------------------------------------------------
Final Conclusion:
------------------------------------------------------------
These tracks looks like CDDA with probability 100%
[/img]
Я не сидирую все свои раздачи подолгу, только новые (до 3х первых сидов)
За своими раздачами не слежу, и старые топики не читаю - если нет сидов или раздача находится в архиве, пришлите письмо, и я вернусь
Предлагаю скачавшим максимально долго оставаться на раздаче - весь рейтинг будет ваш.
Заботьтесь о своем рейтинге - конвертируйте в мп3 и выкладывайте в соответствующем разделе
По всем вопросам пишите личное сообщение пользователю M0p94ok.
11:29
209
Нет комментариев. Ваш будет первым!