Поиск

(Latin Jazz) Sergio Pamies - Borrachito - 2011, FLAC (tracks+.cue), lossless

(Latin Jazz) Sergio Pamies - Borrachito - 2011, FLAC (tracks+.cue), lossless
Треклист:
•Sergio Pamies - Borrachito•
Жанр: Latin Jazz
Год издания диска: 2011
Аудиокодек: FLAC (*.flac)
Тип рипа: tracks+.cue
Битрейт аудио: lossless
Продолжительность: 01:11:03
Источник (релизер): tiburon
Наличие сканов в содержимом раздачи: да
Треклист:
01. Borrachito (Intro)
02. Borrachito (Bulería)
03. Ask me now
04. 1312 Kendolph Drive (Soleá por bulerías)
05. Alegrías de la Paquita
06. Te espero en el Eshavira
07. Cuando dos personas bailan
08. Isfahan (Intro)
09. Isfahan
10. En estado de ruina
11. Fandango in Boskovice
12. Por si te entra la mania (Bulería)
Personnel:Sergio Pamies - piano
Sergio Gómez "el Coloraíto" - vocals
José Cortés "el Pirata" - vocals
Benjamín Santiago "el Moreno" - percussion
Miguel Fernández "el Cheyenne" - percussion
Marko Lohikari - acoustic bass
Gonzalo Del Val - drums
Víctor De Diego - tenor sax, alto sax and flute
Julián Sánchez - trumpet
Guest ArtistsChristian Scott - trumpet
Antonio Serrano - harmonica
Diego Amador - piano
Rubem Dantas - percussion
Pepe Luis Carmona "Habichuela" - vocals
 
Лог создания рипа
Exact Audio Copy V1.0 beta 2 from 29. April 2011
EAC extraction logfile from 13. February 2012, 23:03
Sergio Pamies / Borrachito
Used drive : PLEXTOR DVDR PX-L890SA Adapter: 2 ID: 1
Read mode : Secure
Utilize accurate stream : Yes
Defeat audio cache : Yes
Make use of C2 pointers : No
Read offset correction : 6
Overread into Lead-In and Lead-Out : No
Fill up missing offset samples with silence : Yes
Delete leading and trailing silent blocks : No
Null samples used in CRC calculations : Yes
Used interface : Native Win32 interface for Win NT & 2000
Gap handling : Appended to previous track
Used output format : User Defined Encoder
Selected bitrate : 256 kBit/s
Quality : High
Add ID3 tag : No
Command line compressor : C:\Program Files (x86)\Exact Audio Copy\FLAC\FLAC.EXE
Additional command line options : -8 -V -T "ARTIST=%artist%" -T "TITLE=%title%" -T "ALBUM=%albumtitle%" -T "DATE=%year%" -T "TRACKNUMBER=%tracknr%" -T "TOTALTRACKS=%numtracks%" -T "GENRE=%genre%" -T "ALBUMARTIST=%albumartist%" -T "ALBUM ARTIST=%albumartist%
TOC of the extracted CD
Track | Start | Length | Start sector | End sector
---------------------------------------------------------
1 | 0:00.00 | 1:41.22 | 0 | 7596
2 | 1:41.22 | 8:37.58 | 7597 | 46429
3 | 10:19.05 | 6:32.45 | 46430 | 75874
4 | 16:51.50 | 6:35.72 | 75875 | 105571
5 | 23:27.47 | 4:55.60 | 105572 | 127756
6 | 28:23.32 | 5:12.65 | 127757 | 151221
7 | 33:36.22 | 5:16.34 | 151222 | 174955
8 | 38:52.56 | 1:49.04 | 174956 | 183134
9 | 40:41.60 | 7:06.03 | 183135 | 215087
10 | 47:47.63 | 6:36.23 | 215088 | 244810
11 | 54:24.11 | 9:26.60 | 244811 | 287320
12 | 63:50.71 | 7:12.59 | 287321 | 319779
Track 1
Filename F:\Flac Rips\01 - Borrachito (Intro).wav
Pre-gap length 0:00:02.00
Peak level 80.4 %
Extraction speed 2.8 X
Track quality 100.0 %
Test CRC B837B6C9
Copy CRC B837B6C9
Track not present in AccurateRip database
Copy OK
Track 2
Filename F:\Flac Rips\02 - Borrachito (Buleria).wav
Peak level 99.4 %
Extraction speed 4.1 X
Track quality 100.0 %
Test CRC 90301AD4
Copy CRC 90301AD4
Track not present in AccurateRip database
Copy OK
Track 3
Filename F:\Flac Rips\03 - Ask Me Now.wav
Peak level 100.0 %
Extraction speed 4.6 X
Track quality 100.0 %
Test CRC DBE1E798
Copy CRC DBE1E798
Track not present in AccurateRip database
Copy OK
Track 4
Filename F:\Flac Rips\04 - 1312 Kendolph Drive (Solea por Bulerias).wav
Peak level 100.0 %
Extraction speed 5.1 X
Track quality 100.0 %
Test CRC 44AFB631
Copy CRC 44AFB631
Track not present in AccurateRip database
Copy OK
Track 5
Filename F:\Flac Rips\05 - Alegrias de la Paquita.wav
Peak level 100.0 %
Extraction speed 4.4 X
Track quality 99.9 %
Test CRC A7A83E42
Copy CRC A7A83E42
Track not present in AccurateRip database
Copy OK
Track 6
Filename F:\Flac Rips\06 - Te espero en el Eshavira.wav
Peak level 99.6 %
Extraction speed 5.7 X
Track quality 100.0 %
Test CRC 488D2F51
Copy CRC 488D2F51
Track not present in AccurateRip database
Copy OK
Track 7
Filename F:\Flac Rips\07 - Cuando dos personas bailan.wav
Peak level 98.9 %
Extraction speed 6.0 X
Track quality 100.0 %
Test CRC E27F4383
Copy CRC E27F4383
Track not present in AccurateRip database
Copy OK
Track 8
Filename F:\Flac Rips\08 - Isfahan (Intro).wav
Peak level 100.0 %
Extraction speed 5.1 X
Track quality 100.0 %
Test CRC 7196649B
Copy CRC 7196649B
Track not present in AccurateRip database
Copy OK
Track 9
Filename F:\Flac Rips\09 - Isfahan.wav
Peak level 100.0 %
Extraction speed 6.6 X
Track quality 100.0 %
Test CRC 6EBFD77B
Copy CRC 6EBFD77B
Track not present in AccurateRip database
Copy OK
Track 10
Filename F:\Flac Rips\10 - En estado de ruina.wav
Peak level 100.0 %
Extraction speed 6.9 X
Track quality 100.0 %
Test CRC 1D4EA263
Copy CRC 1D4EA263
Track not present in AccurateRip database
Copy OK
Track 11
Filename F:\Flac Rips\11 - Fandango en Boskovice.wav
Peak level 100.0 %
Extraction speed 7.5 X
Track quality 100.0 %
Test CRC 9D6519D4
Copy CRC 9D6519D4
Track not present in AccurateRip database
Copy OK
Track 12
Filename F:\Flac Rips\12 - Por si te entra la mania (Buleria).wav
Peak level 100.0 %
Extraction speed 7.8 X
Track quality 100.0 %
Test CRC ECF094E8
Copy CRC ECF094E8
Track not present in AccurateRip database
Copy OK
None of the tracks are present in the AccurateRip database
No errors occurred
End of status report
==== Log checksum 30DD47BE81007390453CCA72BA107ECAFE5FF250FCFE6841886009CD0396B820 ====
 
Содержание индексной карты (.CUE)
REM GENRE Flamenco-Jazz
REM DATE 2011
REM DISCID 8D10A70C
REM COMMENT "ExactAudioCopy v1.0b2"
PERFORMER "Sergio Pamies"
TITLE "Borrachito"
FILE "01 - Borrachito (Intro).wav" WAVE
TRACK 01 AUDIO
TITLE "Borrachito (Intro)"
PERFORMER "Sergio Pamies"
INDEX 01 00:00:00
FILE "02 - Borrachito (Buleria).wav" WAVE
TRACK 02 AUDIO
TITLE "Borrachito (Buleria)"
PERFORMER "Sergio Pamies"
INDEX 01 00:00:00
FILE "03 - Ask Me Now.wav" WAVE
TRACK 03 AUDIO
TITLE "Ask Me Now"
PERFORMER "Sergio Pamies"
INDEX 01 00:00:00
FILE "04 - 1312 Kendolph Drive (Solea por Bulerias).wav" WAVE
TRACK 04 AUDIO
TITLE "1312 Kendolph Drive (Solea por Bulerias)"
PERFORMER "Sergio Pamies"
INDEX 01 00:00:00
FILE "05 - Alegrias de la Paquita.wav" WAVE
TRACK 05 AUDIO
TITLE "Alegrias de la Paquita"
PERFORMER "Sergio Pamies"
INDEX 01 00:00:00
FILE "06 - Te espero en el Eshavira.wav" WAVE
TRACK 06 AUDIO
TITLE "Te espero en el Eshavira"
PERFORMER "Sergio Pamies"
INDEX 01 00:00:00
FILE "07 - Cuando dos personas bailan.wav" WAVE
TRACK 07 AUDIO
TITLE "Cuando dos personas bailan"
PERFORMER "Sergio Pamies"
INDEX 01 00:00:00
FILE "08 - Isfahan (Intro).wav" WAVE
TRACK 08 AUDIO
TITLE "Isfahan (Intro)"
PERFORMER "Sergio Pamies"
INDEX 01 00:00:00
FILE "09 - Isfahan.wav" WAVE
TRACK 09 AUDIO
TITLE "Isfahan"
PERFORMER "Sergio Pamies"
INDEX 01 00:00:00
FILE "10 - En estado de ruina.wav" WAVE
TRACK 10 AUDIO
TITLE "En estado de ruina"
PERFORMER "Sergio Pamies"
INDEX 01 00:00:00
FILE "11 - Fandango en Boskovice.wav" WAVE
TRACK 11 AUDIO
TITLE "Fandango en Boskovice"
PERFORMER "Sergio Pamies"
INDEX 01 00:00:00
FILE "12 - Por si te entra la mania (Buleria).wav" WAVE
TRACK 12 AUDIO
TITLE "Por si te entra la mania (Buleria)"
PERFORMER "Sergio Pamies"
INDEX 01 00:00:00
01:38
266
Нет комментариев. Ваш будет первым!