Поиск

(Afro-Cuban Jazz) Irakere featuring Chucho Valdes - Yemaya (Yemayá) - 1998, FLAC (tracks+.cue), lossless

(Afro-Cuban Jazz) Irakere featuring Chucho Valdes - Yemaya (Yemayá) - 1998, FLAC (tracks+.cue), lossless
Треклист:
Irakere featuring Chucho Valdes – Yemayá
Жанр: Afro-Cuban Jazz
Год издания диска: 1998
Издатель (лейбл): Blue Note
Номер по каталогу: 7243 4 98239 2 1
Аудиокодек: FLAC (*.flac)
Тип рипа: tracks+.cue
Битрейт аудио: lossless
Продолжительность: 55:51
Релизер: tiburon
Наличие сканов в содержимом раздачи: front, back
Треклист:
01. Yemayá (7:30)
02. Mister Bruce (9:49)
03. Santa Amalia (13:02)
04. La Explosión (8:16)
05. San Francisco (4:15)
06. Son Montuno (6:03)
07. Chorrino (6:56)
Personnel:
Chucho Valdes - piano
Mayra Caridad Valdes - vocal on track 1
Mario Fernandez - trumpet
Basilio Marquez - trumpet
Cesar Lopez - alto sax
Alfredo Thompson - tenor sax
Carlos Emilio Morales - guitar
Enrique Pla - trap drums
Andres Miranda - congas
Jose Miguel Melendez - timbales
 
 
Лог создания рипа
Exact Audio Copy V0.99 prebeta 4 from 23. January 2008
EAC extraction logfile from 31. May 2010, 0:05
Irakere / Yemaya
Used drive : TSSTcorpCDDVDW TS-H653N Adapter: 2 ID: 2
Read mode : Secure
Utilize accurate stream : Yes
Defeat audio cache : Yes
Make use of C2 pointers : No
Read offset correction : 6
Overread into Lead-In and Lead-Out : No
Fill up missing offset samples with silence : Yes
Delete leading and trailing silent blocks : No
Null samples used in CRC calculations : Yes
Used interface : Native Win32 interface for Win NT & 2000
Gap handling : Appended to previous track
Used output format : User Defined Encoder
Selected bitrate : 1024 kBit/s
Quality : High
Add ID3 tag : No
Command line compressor : C:\Program Files\FLAC -\flac.exe
Additional command line options : -5 -V -T "artist=%a" -T "title=%t" -T "album=%g" -T "date=%y" -T "tracknumber=%n" -T "genre=%m" -T comment="shared by pastafari cubensis" %s
TOC of the extracted CD
Track | Start | Length | Start sector | End sector
---------------------------------------------------------
1 | 0:00.00 | 7:29.70 | 0 | 33744
2 | 7:29.70 | 9:49.30 | 33745 | 77949
3 | 17:19.25 | 13:01.52 | 77950 | 136576
4 | 30:21.02 | 8:15.68 | 136577 | 173769
5 | 38:36.70 | 4:15.02 | 173770 | 192896
6 | 42:51.72 | 6:03.23 | 192897 | 220144
7 | 48:55.20 | 6:56.05 | 220145 | 251349
Track 1
Filename C:\CD_buffer\Irakere - 1998 - Yemaya [FLAC]\01- Yemaya.wav
Pre-gap length 0:00:02.00
Peak level 98.8 %
Track quality 99.9 %
Test CRC 4D32BDC9
Copy CRC 4D32BDC9
Copy OK
Track 2
Filename C:\CD_buffer\Irakere - 1998 - Yemaya [FLAC]\02- Mister Bruce.wav
Pre-gap length 0:00:01.40
Peak level 98.8 %
Track quality 99.9 %
Test CRC 1C37C276
Copy CRC 1C37C276
Copy OK
Track 3
Filename C:\CD_buffer\Irakere - 1998 - Yemaya [FLAC]\03- Santa Amalia.wav
Peak level 98.8 %
Track quality 100.0 %
Test CRC BAEAC4AB
Copy CRC BAEAC4AB
Copy OK
Track 4
Filename C:\CD_buffer\Irakere - 1998 - Yemaya [FLAC]\04- La explosiуn.wav
Peak level 98.8 %
Track quality 100.0 %
Test CRC 307C99EC
Copy CRC 307C99EC
Copy OK
Track 5
Filename C:\CD_buffer\Irakere - 1998 - Yemaya [FLAC]\05- San Francisco.wav
Peak level 98.8 %
Track quality 99.9 %
Test CRC DCC8C15E
Copy CRC DCC8C15E
Copy OK
Track 6
Filename C:\CD_buffer\Irakere - 1998 - Yemaya [FLAC]\06- Son Montuno.wav
Peak level 98.8 %
Track quality 100.0 %
Test CRC E95FC4CD
Copy CRC E95FC4CD
Copy OK
Track 7
Filename C:\CD_buffer\Irakere - 1998 - Yemaya [FLAC]\07- Chorrino.wav
Peak level 98.1 %
Track quality 99.9 %
Test CRC 454B512A
Copy CRC 454B512A
Copy OK
No errors occurred
End of status report
 
Содержание индексной карты (.CUE)
REM GENRE "Afrocuban Jazz"
REM DATE 1998
REM DISCID 540D1707
REM COMMENT "ExactAudioCopy v0.99pb4"
PERFORMER "Irakere"
TITLE "Yemaya"
FILE "01. Yemaya.flac" WAVE
TRACK 01 AUDIO
PERFORMER "Irakere"
INDEX 01 00:00:00
TRACK 02 AUDIO
PERFORMER "Irakere"
INDEX 00 07:28:40
FILE "02. Mister Bruce.flac" WAVE
INDEX 01 00:00:00
FILE "03. Santa Amalia.flac" WAVE
TRACK 03 AUDIO
PERFORMER "Irakere"
INDEX 01 00:00:00
FILE "04. La Explosion.flac" WAVE
TRACK 04 AUDIO
PERFORMER "Irakere"
INDEX 01 00:00:00
FILE "05. San Francisco.flac" WAVE
TRACK 05 AUDIO
PERFORMER "Irakere"
INDEX 01 00:00:00
FILE "06. Son Montuno.flac" WAVE
TRACK 06 AUDIO
PERFORMER "Irakere"
INDEX 01 00:00:00
FILE "07. Chorrino.flac" WAVE
TRACK 07 AUDIO
PERFORMER "Irakere"
INDEX 01 00:00:00
 
Лог проверки качества
AUDIOCHECKER v2.0 beta (build 457) - by Dester - opdester@freemail.hu
~~~~~~~~~~~~~~~~~~~~~~~~~~~~~~~~~~
-=== DO NOT EDIT THIS FILE! ===-
Path: ...\1998. Irakere - Yemaya
1 -=- 01. Yemaya.flac -=- CDDA (100%)
2 -=- 02. Mister Bruce.flac -=- CDDA (100%)
3 -=- 03. Santa Amalia.flac -=- CDDA (100%)
4 -=- 04. La Explosion.flac -=- CDDA (100%)
5 -=- 05. San Francisco.flac -=- CDDA (100%)
6 -=- 06. Son Montuno.flac -=- CDDA (100%)
7 -=- 07. Chorrino.flac -=- CDDA (99%)
Summary 99,86% CDDA
30118788
 
AccurateRip
[CUETools log; Date: 15.02.2012 1:21:15; Version: 2.0.9]
[CTDB TOCID: A.XtCtzvMDoz837JyW.OseeE4hU-] found.
[ CTDBID ] Status
[8efbac43] (1/1) Differs in 159 samples @15:02:27-15:02:28,20:00:41,34:23:30-34:23:31,37:28:69-37:28:70,45:42:22-45:42:23
[AccurateRip ID: 001093e2-00620c60-540d1707] found.
Track [ CRC ] Status
01 [7b0540d8] (4/8) Accurately ripped
02 [4fdf615a] (4/8) Accurately ripped
03 [3efab16d] (4/7) Accurately ripped
04 [d303e1a4] (4/8) Accurately ripped
05 [a5aff5a3] (4/8) Accurately ripped
06 [493def85] (4/8) Accurately ripped
07 [32540465] (4/8) Accurately ripped
Offsetted by 1088:
01 [01c79618] (4/8) Accurately ripped
02 [b48b931a] (4/8) Accurately ripped
03 [3a9a6fad] (3/7) Accurately ripped
04 [cec6ad28] (4/8) Accurately ripped
05 [8ad8a634] (4/8) Accurately ripped
06 [70572024] (4/8) Accurately ripped
07 [fd2328a5] (4/8) Accurately ripped
Track Peak [ CRC32 ] [W/O NULL] [ LOG ]
-- 98,8 [B39273AF] [52DF9BE5]
01 98,8 [4D32BDC9] [92C61EA0] CRC32
02 98,8 [1C37C276] [AC6B0CDE] CRC32
03 98,8 [BAEAC4AB] [84587495] CRC32
04 98,8 [307C99EC] [2842C45E] CRC32
05 98,8 [DCC8C15E] [58F3B14C] CRC32
06 98,8 [E95FC4CD] [B7607104] CRC32
07 98,1 [454B512A] [C0B651B0] CRC32
02:38
265
Нет комментариев. Ваш будет первым!