Поиск

(Latin Jazz/World Fusion) Gilberto Gil - expresso 2222 - 1993, FLAC (image+.cue), lossless

(Latin Jazz/World Fusion) Gilberto Gil - expresso 2222 - 1993, FLAC (image+.cue), lossless
Треклист:
Gilberto Gil / expresso 2222
Жанр: Latin Jazz/World Fusion
Страна-производитель диска: EU
Год издания диска: 1993
Издатель (лейбл): UNIVERSAL
Номер по каталогу: 542814-2
Страна: brasil
Аудиокодек: FLAC (*.flac)
Тип рипа: image+.cue
Битрейт аудио: lossless
Продолжительность: 44:23
Источник (релизер): Мой фирменный диск
Наличие сканов в содержимом раздачи: да
Треклист:
1 Pipoca Moderna 1:59
2 Back In Bahia 4:37
3 O Canto Da Ema 6:23
4 Chiclete Com Banana 3:25
5 Ele E Eu 2:20
6 Sai Do Sereno 3:21
7 Expresso 2222 2:40
8 O Sonho Acabou 3:33
9 Oriente * See All 13 6:01
Bonus
10 Cada Macaco No Seu Galho (Cho, Chua) 4:24
11 Vamos Passear No Astral 2:55
12 Esta Na Cara, Esta Na Cura 2:40
 
Лог создания рипа
Exact Audio Copy V0.99 prebeta 5 from 4. May 2009
EAC extraction logfile from 15. February 2012, 12:14
Gilberto Gil / Expresso 2222
Used drive : ASUS DRW-24B3ST Adapter: 1 ID: 1
Read mode : Secure
Utilize accurate stream : Yes
Defeat audio cache : Yes
Make use of C2 pointers : No
Read offset correction : 6
Overread into Lead-In and Lead-Out : No
Fill up missing offset samples with silence : Yes
Delete leading and trailing silent blocks : No
Null samples used in CRC calculations : Yes
Used interface : Native Win32 interface for Win NT & 2000
Used output format : User Defined Encoder
Selected bitrate : 1024 kBit/s
Quality : High
Add ID3 tag : No
Command line compressor : C:\Program Files\Exact Audio Copy\FLAC\FLAC.EXE
Additional command line options : -8 -V %s
TOC of the extracted CD
Track | Start | Length | Start sector | End sector
---------------------------------------------------------
1 | 0:00.00 | 1:59.30 | 0 | 8954
2 | 1:59.30 | 4:37.57 | 8955 | 29786
3 | 6:37.12 | 6:23.30 | 29787 | 58541
4 | 13:00.42 | 3:25.20 | 58542 | 73936
5 | 16:25.62 | 2:20.25 | 73937 | 84461
6 | 18:46.12 | 3:21.58 | 84462 | 99594
7 | 22:07.70 | 2:40.55 | 99595 | 111649
8 | 24:48.50 | 3:33.32 | 111650 | 127656
9 | 28:22.07 | 6:01.65 | 127657 | 154796
10 | 34:23.72 | 4:25.38 | 154797 | 174709
11 | 38:49.35 | 2:55.22 | 174710 | 187856
12 | 41:44.57 | 2:38.48 | 187857 | 199754
Range status and errors
Selected range
Filename C:\EAC\Gilberto Gil - Expresso 2222.wav
Peak level 100.0 %
Range quality 100.0 %
Copy CRC 2BB41A47
Copy OK
No errors occurred
AccurateRip summary
Track 1 accurately ripped (confidence 2) [36D2A33F]
Track 2 accurately ripped (confidence 2) [CC93CBDD]
Track 3 accurately ripped (confidence 2) [B08DAA01]
Track 4 accurately ripped (confidence 2) [D6B3754B]
Track 5 accurately ripped (confidence 2) [37CE2689]
Track 6 accurately ripped (confidence 2) [0620EAB0]
Track 7 accurately ripped (confidence 2) [1A4188A8]
Track 8 accurately ripped (confidence 2) [12D1AE2B]
Track 9 accurately ripped (confidence 2) [A0C95939]
Track 10 accurately ripped (confidence 2) [06D3D179]
Track 11 accurately ripped (confidence 2) [05ADA848]
Track 12 accurately ripped (confidence 2) [8830AFD3]
All tracks accurately ripped
End of status report
Доп. информация: Мой фирменный диск, как-то случайно попался, с тех пор и валяется. Не понимаю я боссу, хотя честно пытался послушать, с другой стороны может кому- нибудь это надо.
02:39
276
Нет комментариев. Ваш будет первым!