Поиск

(Latin Jazz, Salsa) Spanish Harlem Orchestra - Un Gran Dia En El Barrio - 2002, FLAC (image+.cue), lossless

Треклист:
Spanish Harlem Orchestra - Un Gran Dia En El Barrio
Жанр: Latin Jazz, Salsa
Год выпуска диска: 2002
Производитель диска: USA
Аудио кодек: FLAC
Тип рипа: image+.cue
Битрейт аудио: lossless
Продолжительность: 43'53''
Трэклист:
01 Mama Guela
02 Obsesion
03 Tambori
04 Aprende A Querer
05 La Musica Es Mi Vida
06 La Banda
07 Pa' Gozar
08 Somos Iguales
09 Vale Mas Un Guaganco
10 Pueblo Latino
 
Cue sheet
REM GENRE Latin
REM DATE 2002
REM DISCID 6D0A490A
REM COMMENT "ExactAudioCopy v0.99pb5"
PERFORMER "Spanish Harlem Orchestra"
TITLE "Un Gran Dia En El Barrio"
FILE "Spanish Harlem Orchestra - 2002 - Un Gran Dia En El Barrio.flac" WAVE
TRACK 01 AUDIO
TITLE "Mama Guela"
PERFORMER "Spanish Harlem Orchestra"
INDEX 01 00:00:00
TRACK 02 AUDIO
TITLE "Obsesión"
PERFORMER "Spanish Harlem Orchestra"
INDEX 00 03:33:15
INDEX 01 03:33:62
TRACK 03 AUDIO
TITLE "Tambori"
PERFORMER "Spanish Harlem Orchestra"
INDEX 00 09:15:07
INDEX 01 09:15:50
TRACK 04 AUDIO
TITLE "Aprende A Querer"
PERFORMER "Spanish Harlem Orchestra"
INDEX 00 12:47:35
INDEX 01 12:48:02
TRACK 05 AUDIO
TITLE "La Música Es Mi Vida"
PERFORMER "Spanish Harlem Orchestra"
INDEX 00 17:05:00
INDEX 01 17:06:42
TRACK 06 AUDIO
TITLE "La Banda"
PERFORMER "Spanish Harlem Orchestra"
INDEX 00 20:59:57
INDEX 01 21:00:07
TRACK 07 AUDIO
TITLE "Pa' Gozar"
PERFORMER "Spanish Harlem Orchestra"
INDEX 00 25:49:00
INDEX 01 25:49:42
TRACK 08 AUDIO
TITLE "Somos Iguales"
PERFORMER "Spanish Harlem Orchestra"
INDEX 00 31:38:00
INDEX 01 31:38:40
TRACK 09 AUDIO
TITLE "Vale Mas Un Guaguanco"
PERFORMER "Spanish Harlem Orchestra"
INDEX 00 35:20:05
INDEX 01 35:22:45
TRACK 10 AUDIO
TITLE "Pueblo Latino"
PERFORMER "Spanish Harlem Orchestra"
INDEX 00 39:31:27
INDEX 01 39:31:67
 
EAC log
Exact Audio Copy V0.99 prebeta 5 from 4. May 2009
EAC extraction logfile from 7. May 2010, 0:37
Spanish Harlem Orchestra / Un Gran Dia En El Barrio
Used drive : HL-DT-STDVDRAM GSA-H10A Adapter: 0 ID: 0
Read mode : Secure
Utilize accurate stream : Yes
Defeat audio cache : Yes
Make use of C2 pointers : No
Read offset correction : 667
Overread into Lead-In and Lead-Out : No
Fill up missing offset samples with silence : Yes
Delete leading and trailing silent blocks : No
Null samples used in CRC calculations : Yes
Used interface : Installed external ASPI interface
Used output format : User Defined Encoder
Selected bitrate : 768 kBit/s
Quality : High
Add ID3 tag : No
Command line compressor : C:\Program Files\Exact Audio Copy\FLAC\FLAC.EXE
Additional command line options : -8 -V %s
TOC of the extracted CD
Track | Start | Length | Start sector | End sector
---------------------------------------------------------
1 | 0:00.00 | 3:33.62 | 0 | 16036
2 | 3:33.62 | 5:41.63 | 16037 | 41674
3 | 9:15.50 | 3:32.27 | 41675 | 57601
4 | 12:48.02 | 4:18.40 | 57602 | 76991
5 | 17:06.42 | 3:53.40 | 76992 | 94506
6 | 21:00.07 | 4:49.35 | 94507 | 116216
7 | 25:49.42 | 5:48.73 | 116217 | 142389
8 | 31:38.40 | 3:44.05 | 142390 | 159194
9 | 35:22.45 | 4:09.22 | 159195 | 177891
10 | 39:31.67 | 4:21.25 | 177892 | 197491
Range status and errors
Selected range
Filename C:\Documents and Settings\Jpics\Desktop\TEMP\Spanish Harlem Orchestra - 2002 - Un Gran Dia En El Barrio\Spanish Harlem Orchestra - 2002 - Un Gran Dia En El Barrio.wav
Peak level 99.0 %
Range quality 100.0 %
Test CRC C4D11B9A
Copy CRC C4D11B9A
Copy OK
No errors occurred
AccurateRip summary
Track 1 accurately ripped (confidence 3) [22977F7D]
Track 2 accurately ripped (confidence 3) [2BDC2784]
Track 3 accurately ripped (confidence 3) [1D7E4FBE]
Track 4 accurately ripped (confidence 3) [19F31C06]
Track 5 accurately ripped (confidence 3) [953F7E5D]
Track 6 accurately ripped (confidence 3) [6D7133CC]
Track 7 accurately ripped (confidence 3) [DD877079]
Track 8 cannot be verified as accurate (confidence 3) [BBD562DD], AccurateRip returned [C1AA62DD]
Track 9 accurately ripped (confidence 3) [E698377C]
Track 10 accurately ripped (confidence 3) [84D96626]
9 track(s) accurately ripped
1 track(s) could not be verified as accurate
Some tracks could not be verified as accurate
End of status report
15:36
327
Нет комментариев. Ваш будет первым!