Поиск

(Bossa Nova) Toots Thielemans & Elis Regina : Aquarela Do Brasil (1969) - 1987, FLAC (tracks+.cue), lossless

Toots Thielemans & Elis Regina : Aquarela Do Brasil (1969)
Жанр: Bossa Nova
Год выпуска диска: 1987
Производитель диска: Philips(W.Germany)
Аудио кодек: FLAC
Тип рипа: tracks+.cue
Битрейт аудио: lossless
Продолжительность: 00:33:34

Трэклист:
01. Wave (3:12)
02. Aquarela do Brasil (3:03)
03. Visao (2:55)
04. Corrida de Jangada (2:05)
05. Wilsamba (2:12)
06. Voce (You) (2:26)
07. Barquinho (2:45)
08. O sonho (2:16)
09. Five for Elis (2:00)
10. Canto de Ossanha (3:15)
11. Honeysuckle Rose (2:55)
12. Volta (4:29)
 
Лог EAC
Exact Audio Copy V0.99 prebeta 5 from 4. May 2009
Отчёт EAC об извлечении, выполненном 5. мая 2010, 11:15
Toots Thielemans / [with Elis Regina] Aquarela do Brasil
Дисковод: SONY DVD RW DRX-S70U Adapter: 2 ID: 0
Режим чтения : Достоверность
Использование точного потока : Да
Отключение кэша аудио : Да
Использование указателей C2 : Нет
Коррекция смещения при чтении : 48
Способность читать области Lead-in и Lead-out : Нет
Заполнение пропущенных сэмплов тишиной : Да
Удаление блоков с тишиной в начале и конце : Нет
При вычислениях CRC использовались нулевые сэмплы : Да
Интерфейс : Встроенный Win32-интерфейс для Win NT/2000
Обработка зазоров : Добавлено к предыдущему треку
Выходной формат : Пользовательский кодировщик
Выбранный битрейт : 768 kBit/s
Качество : Высокий
Добавление ID3-тэга : Да
Утилита сжатия : H:\Program Files\Exact Audio Copy\Flac\flac.exe
Дополнительные параметры : -6 -V -T "ARTIST=%a" -T "TITLE=%t" -T "ALBUM=%g" -T "DATE=%y" -T "TRACKNUMBER=%n" -T "GENRE=%m" -T "COMMENT=%e" %s -o %d
TOC извлечённого CD
Трек | Старт | Длительность | Начальный сектор | Конечный сектор
---------------------------------------------------------------------
1 | 0:00.33 | 3:12.27 | 33 | 14459
2 | 3:12.60 | 3:02.50 | 14460 | 28159
3 | 6:15.35 | 2:54.43 | 28160 | 41252
4 | 9:10.03 | 2:05.00 | 41253 | 50627
5 | 11:15.03 | 2:11.50 | 50628 | 60502
6 | 13:26.53 | 2:26.15 | 60503 | 71467
7 | 15:52.68 | 2:45.37 | 71468 | 83879
8 | 18:38.30 | 2:15.70 | 83880 | 94074
9 | 20:54.25 | 1:59.50 | 94075 | 103049
10 | 22:54.00 | 3:14.50 | 103050 | 117649
11 | 26:08.50 | 2:54.45 | 117650 | 130744
12 | 29:03.20 | 4:28.63 | 130745 | 150907
Трек 1
Имя файла E:\Toots Thielemans & Elis Regina\[01]Wave-Toots Thielemans.wav
Длина предзазора 0:00:02.44
Пиковый уровень 91.7 %
Качество трека 100.0 %
CRC теста 17EE2476
CRC копии 17EE2476
Точное извлечение (достоверность 2) [75A5ED5D]
Копирование... OK
Трек 2
Имя файла E:\Toots Thielemans & Elis Regina\[02]Aquarela do Brasil-Toots Thielemans.wav
Длина предзазора 0:00:03.86
Пиковый уровень 94.8 %
Качество трека 100.0 %
CRC теста 18F8FA17
CRC копии 18F8FA17
Точное извлечение (достоверность 2) [13897CE7]
Копирование... OK
Трек 3
Имя файла E:\Toots Thielemans & Elis Regina\[03]Visao-Toots Thielemans.wav
Длина предзазора 0:00:02.86
Пиковый уровень 94.3 %
Качество трека 100.0 %
CRC теста 732D7F49
CRC копии 732D7F49
Точное извлечение (достоверность 2) [F49FA36B]
Копирование... OK
Трек 4
Имя файла E:\Toots Thielemans & Elis Regina\[04]Corrida de Jangada-Toots Thielemans.wav
Длина предзазора 0:00:02.26
Пиковый уровень 88.7 %
Качество трека 100.0 %
CRC теста E2CB4FD5
CRC копии E2CB4FD5
Точное извлечение (достоверность 2) [0CA75697]
Копирование... OK
Трек 5
Имя файла E:\Toots Thielemans & Elis Regina\[05]Wilsamba-Toots Thielemans.wav
Длина предзазора 0:00:02.44
Пиковый уровень 89.1 %
Качество трека 100.0 %
CRC теста 049FA994
CRC копии 049FA994
Точное извлечение (достоверность 2) [1C3CA003]
Копирование... OK
Трек 6
Имя файла E:\Toots Thielemans & Elis Regina\[06]Voce (You)-Toots Thielemans.wav
Длина предзазора 0:00:02.77
Пиковый уровень 88.9 %
Качество трека 100.0 %
CRC теста 70AB192C
CRC копии 70AB192C
Точное извлечение (достоверность 2) [0417755B]
Копирование... OK
Трек 7
Имя файла E:\Toots Thielemans & Elis Regina\[07]Barquinho-Toots Thielemans.wav
Длина предзазора 0:00:02.97
Пиковый уровень 79.6 %
Качество трека 100.0 %
CRC теста 060CFC5E
CRC копии 060CFC5E
Точное извлечение (достоверность 2) [511DF1F2]
Копирование... OK
Трек 8
Имя файла E:\Toots Thielemans & Elis Regina\[08]O sonho-Toots Thielemans.wav
Длина предзазора 0:00:02.29
Пиковый уровень 87.8 %
Качество трека 100.0 %
CRC теста 70A8C349
CRC копии 70A8C349
Точное извлечение (достоверность 2) [CD57DF9A]
Копирование... OK
Трек 9
Имя файла E:\Toots Thielemans & Elis Regina\[09]Five for Elis-Toots Thielemans.wav
Длина предзазора 0:00:03.22
Пиковый уровень 90.8 %
Качество трека 100.0 %
CRC теста 902E399D
CRC копии 902E399D
Точное извлечение (достоверность 2) [3E33A757]
Копирование... OK
Трек 10
Имя файла E:\Toots Thielemans & Elis Regina\[10]Canto de Ossanha-Toots Thielemans.wav
Длина предзазора 0:00:02.22
Пиковый уровень 95.4 %
Качество трека 100.0 %
CRC теста 35E562F6
CRC копии 35E562F6
Точное извлечение (достоверность 2) [5E27F73E]
Копирование... OK
Трек 11
Имя файла E:\Toots Thielemans & Elis Regina\[11]Honeysuckle Rose-Toots Thielemans.wav
Длина предзазора 0:00:02.40
Пиковый уровень 97.0 %
Качество трека 100.0 %
CRC теста 92BAAD5A
CRC копии 92BAAD5A
Точное извлечение (достоверность 2) [41FC9FFE]
Копирование... OK
Трек 12
Имя файла E:\Toots Thielemans & Elis Regina\[12]Volta-Toots Thielemans.wav
Длина предзазора 0:00:03.49
Пиковый уровень 66.2 %
Качество трека 100.0 %
CRC теста 7ADFD225
CRC копии 7ADFD225
Точное извлечение (достоверность 2) [FFDDB51A]
Копирование... OK
Все треки извлечены точно
Ошибок не произошло
Конец отчёта
 
Лог Audiochecker
AUDIOCHECKER v2.0 beta (build 457) - by Dester - opdester@freemail.hu
~~~~~~~~~~~~~~~~~~~~~~~~~~~~~~~~~~
-=== НЕ РЕДАКТИРУЙТЕ ЭТОТ ФАЙЛ! ===-
Путь: ...\Toots Thielemans & Elis Regina
01 -=- [01]Wave-Toots Thielemans.flac -=- CDDA (100%)
02 -=- [02]Aquarela do Brasil-Toots Thielemans.flac -=- CDDA (100%)
03 -=- [03]Visao-Toots Thielemans.flac -=- CDDA (100%)
04 -=- [04]Corrida de Jangada-Toots Thielemans.flac -=- CDDA (100%)
05 -=- [05]Wilsamba-Toots Thielemans.flac -=- CDDA (100%)
06 -=- [06]Voce (You)-Toots Thielemans.flac -=- CDDA (100%)
07 -=- [07]Barquinho-Toots Thielemans.flac -=- CDDA (100%)
08 -=- [08]O sonho-Toots Thielemans.flac -=- CDDA (100%)
09 -=- [09]Five for Elis-Toots Thielemans.flac -=- CDDA (100%)
10 -=- [10]Canto de Ossanha-Toots Thielemans.flac -=- CDDA (100%)
11 -=- [11]Honeysuckle Rose-Toots Thielemans.flac -=- CDDA (100%)
12 -=- [12]Volta-Toots Thielemans.flac -=- CDDA (100%)
Сводка 100,00% CDDA
131339940
 
*CUE
REM GENRE MPB
REM DATE 1969
REM DISCID A407DC0C
REM COMMENT "ExactAudioCopy v0.99pb5"
PERFORMER "Toots Thielemans"
TITLE "[with Elis Regina] Aquarela do Brasil"
FILE "[01]Wave-Toots Thielemans.wav" WAVE
TRACK 01 AUDIO
TITLE "Wave"
PERFORMER "Toots Thielemans"
PREGAP 00:00:33
INDEX 01 00:00:00
TRACK 02 AUDIO
TITLE "Aquarela do Brasil"
PERFORMER "Toots Thielemans"
INDEX 00 03:08:37
FILE "[02]Aquarela do Brasil-Toots Thielemans.wav" WAVE
INDEX 01 00:00:00
TRACK 03 AUDIO
TITLE "Visao"
PERFORMER "Toots Thielemans"
INDEX 00 02:59:60
FILE "[03]Visao-Toots Thielemans.wav" WAVE
INDEX 01 00:00:00
TRACK 04 AUDIO
TITLE "Corrida de Jangada"
PERFORMER "Toots Thielemans"
INDEX 00 02:52:23
FILE "[04]Corrida de Jangada-Toots Thielemans.wav" WAVE
INDEX 01 00:00:00
TRACK 05 AUDIO
TITLE "Wilsamba"
PERFORMER "Toots Thielemans"
INDEX 00 02:02:42
FILE "[05]Wilsamba-Toots Thielemans.wav" WAVE
INDEX 01 00:00:00
TRACK 06 AUDIO
TITLE "Voce (You)"
PERFORMER "Toots Thielemans"
INDEX 00 02:08:67
FILE "[06]Voce (You)-Toots Thielemans.wav" WAVE
INDEX 01 00:00:00
TRACK 07 AUDIO
TITLE "Barquinho"
PERFORMER "Toots Thielemans"
INDEX 00 02:23:17
FILE "[07]Barquinho-Toots Thielemans.wav" WAVE
INDEX 01 00:00:00
TRACK 08 AUDIO
TITLE "O sonho"
PERFORMER "Toots Thielemans"
INDEX 00 02:43:15
FILE "[08]O sonho-Toots Thielemans.wav" WAVE
INDEX 01 00:00:00
TRACK 09 AUDIO
TITLE "Five for Elis"
PERFORMER "Toots Thielemans"
INDEX 00 02:12:53
FILE "[09]Five for Elis-Toots Thielemans.wav" WAVE
INDEX 01 00:00:00
TRACK 10 AUDIO
TITLE "Canto de Ossanha"
PERFORMER "Toots Thielemans"
INDEX 00 01:57:33
FILE "[10]Canto de Ossanha-Toots Thielemans.wav" WAVE
INDEX 01 00:00:00
TRACK 11 AUDIO
TITLE "Honeysuckle Rose"
PERFORMER "Toots Thielemans"
INDEX 00 03:12:20
FILE "[11]Honeysuckle Rose-Toots Thielemans.wav" WAVE
INDEX 01 00:00:00
TRACK 12 AUDIO
TITLE "Volta"
PERFORMER "Toots Thielemans"
INDEX 00 02:51:08
FILE "[12]Volta-Toots Thielemans.wav" WAVE
INDEX 01 00:00:00
рип мой с оригинального cd из моей коллекции .
15:35
505
Нет комментариев. Ваш будет первым!