Поиск

(Latin Jazz/World Fusion) Djavan 3CD : Alumbramento(1980) + Djavan(1978)/Bird Of Paradise(1988)/Coisa De Acender(1992) , FLAC (tracks+.cue) , FLAC (image+.cue) , lossless

Треклист:
Djavan 3CD : Alumbramento(1980) + Djavan(1978)/Bird Of Paradise(1987)/Coisa De Acender(1992)
Жанр: Latin Jazz/World Fusion
Аудио кодек: FLAC
Тип рипа: tracks+.cue / image+.cue
Битрейт аудио: lossless
.
.
.
.
.
.
.
.

Трэклист и прочее :
 
Alumbramento & Djavan (01:09:03) : World Pacific/Capitol(USA)-CDP7 96865 2-(1992)

Трэклист:
01. Tem Boi Na Linha (2:42)
02. Sim On Nao (3:17)
03. Lambada De Serpente (2:56)
04. A Rosa (4:26)
05. Dor E Prata (3:30)
06. Meu Bem Querer (3:24)
07. Aquele Um (3:09)
08. Alumbramento (3:31)
09. Triste Baia De Guanabara (2:57)
10. Surur De Capote (2:55)
11. Cara De Indio (3:09)
12. Serrado (3:35)
13. Agua (3:41)
14. Alibi (2:23)
15. Numa Esquina De Hanoi (3:11)
16. Minha Mae (2:12)
17. Alagoas (3:52)
18. Estoria De Cantador (4:17)
19. Nereci (3:22)
20. Samba Dobrado (3:33)
21. Dupla Traica (3:02)
 
Лог EAC
Exact Audio Copy V0.99 prebeta 5 from 4. May 2009
Отчёт EAC об извлечении, выполненном 4. мая 2010, 19:30
Djavan / Alumbramento & Djavan
Дисковод: SONY DVD RW DRX-S70U Adapter: 2 ID: 0
Режим чтения : Достоверность
Использование точного потока : Да
Отключение кэша аудио : Да
Использование указателей C2 : Нет
Коррекция смещения при чтении : 48
Способность читать области Lead-in и Lead-out : Нет
Заполнение пропущенных сэмплов тишиной : Да
Удаление блоков с тишиной в начале и конце : Нет
При вычислениях CRC использовались нулевые сэмплы : Да
Интерфейс : Встроенный Win32-интерфейс для Win NT/2000
Обработка зазоров : Добавлено к предыдущему треку
Выходной формат : Пользовательский кодировщик
Выбранный битрейт : 768 kBit/s
Качество : Высокий
Добавление ID3-тэга : Да
Утилита сжатия : H:\Program Files\Exact Audio Copy\Flac\flac.exe
Дополнительные параметры : -6 -V -T "ARTIST=%a" -T "TITLE=%t" -T "ALBUM=%g" -T "DATE=%y" -T "TRACKNUMBER=%n" -T "GENRE=%m" -T "COMMENT=%e" %s -o %d
TOC извлечённого CD
Трек | Старт | Длительность | Начальный сектор | Конечный сектор
---------------------------------------------------------------------
1 | 0:00.00 | 2:41.65 | 0 | 12139
2 | 2:41.65 | 3:16.57 | 12140 | 26896
3 | 5:58.47 | 2:55.73 | 26897 | 40094
4 | 8:54.45 | 4:25.60 | 40095 | 60029
5 | 13:20.30 | 3:29.42 | 60030 | 75746
6 | 16:49.72 | 3:24.33 | 75747 | 91079
7 | 20:14.30 | 3:08.42 | 91080 | 105221
8 | 23:22.72 | 3:31.25 | 105222 | 121071
9 | 26:54.22 | 2:56.65 | 121072 | 134336
10 | 29:51.12 | 2:54.45 | 134337 | 147431
11 | 32:45.57 | 3:09.35 | 147432 | 161641
12 | 35:55.17 | 3:35.13 | 161642 | 177779
13 | 39:30.30 | 3:40.62 | 177780 | 194341
14 | 43:11.17 | 2:23.15 | 194342 | 205081
15 | 45:34.32 | 3:11.28 | 205082 | 219434
16 | 48:45.60 | 2:11.65 | 219435 | 229324
17 | 50:57.50 | 3:51.40 | 229325 | 246689
18 | 54:49.15 | 4:17.05 | 246690 | 265969
19 | 59:06.20 | 3:22.32 | 265970 | 281151
20 | 62:28.52 | 3:32.70 | 281152 | 297121
21 | 66:01.47 | 3:01.48 | 297122 | 310744
Трек 1
Имя файла E:\Djavan\[01]Tem Boi Na Linha-Djavan.wav
Длина предзазора 0:00:02.00
Пиковый уровень 91.0 %
Качество трека 100.0 %
CRC теста B2CAF9CD
CRC копии B2CAF9CD
Точное извлечение (достоверность 5) [742D18A6]
Копирование... OK
Трек 2
Имя файла E:\Djavan\[02]Sim On Nao-Djavan.wav
Длина предзазора 0:00:02.77
Пиковый уровень 90.9 %
Качество трека 100.0 %
CRC теста CD74BC43
CRC копии CD74BC43
Точное извлечение (достоверность 5) [89CF68B9]
Копирование... OK
Трек 3
Имя файла E:\Djavan\[03]Lambada De Serpente-Djavan.wav
Длина предзазора 0:00:01.56
Пиковый уровень 90.2 %
Качество трека 99.9 %
CRC теста 63E05967
CRC копии 63E05967
Точное извлечение (достоверность 5) [48C42E3F]
Копирование... OK
Трек 4
Имя файла E:\Djavan\[04]A Rosa-Djavan.wav
Длина предзазора 0:00:01.26
Пиковый уровень 93.0 %
Качество трека 100.0 %
CRC теста 7E689B38
CRC копии 7E689B38
Точное извлечение (достоверность 5) [D7E4B952]
Копирование... OK
Трек 5
Имя файла E:\Djavan\[05]Dor E Prata-Djavan.wav
Длина предзазора 0:00:01.73
Пиковый уровень 88.1 %
Качество трека 99.9 %
CRC теста 329A9B6F
CRC копии 329A9B6F
Точное извлечение (достоверность 4) [D5EF7964]
Копирование... OK
Трек 6
Имя файла E:\Djavan\[06]Meu Bem Querer-Djavan.wav
Длина предзазора 0:00:01.66
Пиковый уровень 85.1 %
Качество трека 100.0 %
CRC теста 8ECA066F
CRC копии 8ECA066F
Точное извлечение (достоверность 5) [BA8D180F]
Копирование... OK
Трек 7
Имя файла E:\Djavan\[07]Aquele Um-Djavan.wav
Длина предзазора 0:00:01.86
Пиковый уровень 91.0 %
Качество трека 100.0 %
CRC теста C305B7E4
CRC копии C305B7E4
Точное извлечение (достоверность 4) [79792298]
Копирование... OK
Трек 8
Имя файла E:\Djavan\[08]Alumbramento-Djavan.wav
Длина предзазора 0:00:01.46
Пиковый уровень 90.5 %
Качество трека 100.0 %
CRC теста 41932790
CRC копии 41932790
Точное извлечение (достоверность 5) [4A1B1903]
Копирование... OK
Трек 9
Имя файла E:\Djavan\[09]Triste Baia De Guanabara-Djavan.wav
Длина предзазора 0:00:01.60
Пиковый уровень 90.2 %
Качество трека 100.0 %
CRC теста 2C86F5BB
CRC копии 2C86F5BB
Точное извлечение (достоверность 5) [3EA34F51]
Копирование... OK
Трек 10
Имя файла E:\Djavan\[10]Surur De Capote-Djavan.wav
Длина предзазора 0:00:00.53
Пиковый уровень 92.4 %
Качество трека 100.0 %
CRC теста 76F6DFA9
CRC копии 76F6DFA9
Точное извлечение (достоверность 4) [02BD2493]
Копирование... OK
Трек 11
Имя файла E:\Djavan\[11]Cara De Indio-Djavan.wav
Длина предзазора 0:00:02.33
Пиковый уровень 91.2 %
Качество трека 100.0 %
CRC теста 026BB8BA
CRC копии 026BB8BA
Точное извлечение (достоверность 5) [5B9FA6CF]
Копирование... OK
Трек 12
Имя файла E:\Djavan\[12]Serrado-Djavan.wav
Длина предзазора 0:00:00.69
Пиковый уровень 93.4 %
Качество трека 99.9 %
CRC теста E75AEE95
CRC копии E75AEE95
Точное извлечение (достоверность 5) [C10A954B]
Копирование... OK
Трек 13
Имя файла E:\Djavan\[13]Agua-Djavan.wav
Длина предзазора 0:00:02.00
Пиковый уровень 91.3 %
Качество трека 99.9 %
CRC теста BDB7F996
CRC копии BDB7F996
Точное извлечение (достоверность 5) [42DC3CF3]
Копирование... OK
Трек 14
Имя файла E:\Djavan\[14]Alibi-Djavan.wav
Длина предзазора 0:00:01.06
Пиковый уровень 83.2 %
Качество трека 100.0 %
CRC теста 4172B13C
CRC копии 4172B13C
Точное извлечение (достоверность 5) [3F78A4BB]
Копирование... OK
Трек 15
Имя файла E:\Djavan\[15]Numa Esquina De Hanoi-Djavan.wav
Длина предзазора 0:00:00.82
Пиковый уровень 91.2 %
Качество трека 100.0 %
CRC теста ACEA36C9
CRC копии ACEA36C9
Точное извлечение (достоверность 4) [3CBD92AD]
Копирование... OK
Трек 16
Имя файла E:\Djavan\[16]Minha Mae-Djavan.wav
Длина предзазора 0:00:01.90
Пиковый уровень 90.1 %
Качество трека 100.0 %
CRC теста 0DD32E79
CRC копии 0DD32E79
Точное извлечение (достоверность 4) [9A38E402]
Копирование... OK
Трек 17
Имя файла E:\Djavan\[17]Alagoas-Djavan.wav
Длина предзазора 0:00:01.53
Пиковый уровень 92.9 %
Качество трека 100.0 %
CRC теста 56D880B4
CRC копии 56D880B4
Точное извлечение (достоверность 5) [552A2B88]
Копирование... OK
Трек 18
Имя файла E:\Djavan\[18]Estoria De Cantador-Djavan.wav
Длина предзазора 0:00:01.73
Пиковый уровень 91.7 %
Качество трека 100.0 %
CRC теста 799E333F
CRC копии 799E333F
Точное извлечение (достоверность 5) [20F139EC]
Копирование... OK
Трек 19
Имя файла E:\Djavan\[19]Nereci-Djavan.wav
Длина предзазора 0:00:02.20
Пиковый уровень 88.7 %
Качество трека 100.0 %
CRC теста F8B29A14
CRC копии F8B29A14
Точное извлечение (достоверность 5) [F8B3439A]
Копирование... OK
Трек 20
Имя файла E:\Djavan\[20]Samba Dobrado-Djavan.wav
Длина предзазора 0:00:01.66
Пиковый уровень 88.1 %
Качество трека 100.0 %
CRC теста 3D29A3B4
CRC копии 3D29A3B4
Точное извлечение (достоверность 4) [2EBEFED2]
Копирование... OK
Трек 21
Имя файла E:\Djavan\[21]Dupla Traica-Djavan.wav
Длина предзазора 0:00:01.49
Пиковый уровень 85.4 %
Качество трека 99.9 %
CRC теста F51FCBD6
CRC копии F51FCBD6
Точное извлечение (достоверность 4) [745A6C95]
Копирование... OK
Все треки извлечены точно
Ошибок не произошло
Конец отчёта
 
Лог Audiochecker
AUDIOCHECKER v2.0 beta (build 457) - by Dester - opdester@freemail.hu
~~~~~~~~~~~~~~~~~~~~~~~~~~~~~~~~~~
-=== DO NOT EDIT THIS FILE! ===-
Путь: ...\Alumbramento & Djavan
01 -=- [01]Tem Boi Na Linha-Djavan.flac -=- CDDA (100%)
02 -=- [02]Sim On Nao-Djavan.flac -=- CDDA (100%)
03 -=- [03]Lambada De Serpente-Djavan.flac -=- CDDA (100%)
04 -=- [04]A Rosa-Djavan.flac -=- CDDA (99%)
05 -=- [05]Dor E Prata-Djavan.flac -=- CDDA (100%)
06 -=- [06]Meu Bem Querer-Djavan.flac -=- CDDA (99%)
07 -=- [07]Aquele Um-Djavan.flac -=- CDDA (100%)
08 -=- [08]Alumbramento-Djavan.flac -=- CDDA (100%)
09 -=- [09]Triste Baia De Guanabara-Djavan.flac -=- CDDA (99%)
10 -=- [10]Surur De Capote-Djavan.flac -=- CDDA (100%)
11 -=- [11]Cara De Indio-Djavan.flac -=- CDDA (100%)
12 -=- [12]Serrado-Djavan.flac -=- CDDA (100%)
13 -=- [13]Agua-Djavan.flac -=- CDDA (100%)
14 -=- [14]Alibi-Djavan.flac -=- CDDA (99%)
15 -=- [15]Numa Esquina De Hanoi-Djavan.flac -=- CDDA (100%)
16 -=- [16]Minha Mae-Djavan.flac -=- CDDA (100%)
17 -=- [17]Alagoas-Djavan.flac -=- CDDA (100%)
18 -=- [18]Estoria De Cantador-Djavan.flac -=- CDDA (99%)
19 -=- [19]Nereci-Djavan.flac -=- CDDA (100%)
20 -=- [20]Samba Dobrado-Djavan.flac -=- CDDA (100%)
21 -=- [21]Dupla Traica-Djavan.flac -=- CDDA (100%)
Сводка 99,76% CDDA
3149268
 
*CUE
REM GENRE Jazz
REM DATE 1992
REM DISCID 2B102F15
REM COMMENT "ExactAudioCopy v0.99pb5"
PERFORMER "Djavan"
TITLE "Alumbramento & Djavan"
FILE "[01]Tem Boi Na Linha-Djavan.wav" WAVE
TRACK 01 AUDIO
TITLE "Tem Boi Na Linha"
PERFORMER "Djavan"
INDEX 01 00:00:00
TRACK 02 AUDIO
TITLE "Sim On Nao"
PERFORMER "Djavan"
INDEX 00 02:39:07
FILE "[02]Sim On Nao-Djavan.wav" WAVE
INDEX 01 00:00:00
TRACK 03 AUDIO
TITLE "Lambada De Serpente"
PERFORMER "Djavan"
INDEX 00 03:15:15
FILE "[03]Lambada De Serpente-Djavan.wav" WAVE
INDEX 01 00:00:00
TRACK 04 AUDIO
TITLE "A Rosa"
PERFORMER "Djavan"
INDEX 00 02:54:53
FILE "[04]A Rosa-Djavan.wav" WAVE
INDEX 01 00:00:00
TRACK 05 AUDIO
TITLE "Dor E Prata"
PERFORMER "Djavan"
INDEX 00 04:24:05
FILE "[05]Dor E Prata-Djavan.wav" WAVE
INDEX 01 00:00:00
TRACK 06 AUDIO
TITLE "Meu Bem Querer"
PERFORMER "Djavan"
INDEX 00 03:27:67
FILE "[06]Meu Bem Querer-Djavan.wav" WAVE
INDEX 01 00:00:00
TRACK 07 AUDIO
TITLE "Aquele Um"
PERFORMER "Djavan"
INDEX 00 03:22:43
FILE "[07]Aquele Um-Djavan.wav" WAVE
INDEX 01 00:00:00
TRACK 08 AUDIO
TITLE "Alumbramento"
PERFORMER "Djavan"
INDEX 00 03:07:07
FILE "[08]Alumbramento-Djavan.wav" WAVE
INDEX 01 00:00:00
TRACK 09 AUDIO
TITLE "Triste Baia De Guanabara"
PERFORMER "Djavan"
INDEX 00 03:29:55
FILE "[09]Triste Baia De Guanabara-Djavan.wav" WAVE
INDEX 01 00:00:00
TRACK 10 AUDIO
TITLE "Surur De Capote"
PERFORMER "Djavan"
INDEX 00 02:56:25
FILE "[10]Surur De Capote-Djavan.wav" WAVE
INDEX 01 00:00:00
TRACK 11 AUDIO
TITLE "Cara De Indio"
PERFORMER "Djavan"
INDEX 00 02:52:20
FILE "[11]Cara De Indio-Djavan.wav" WAVE
INDEX 01 00:00:00
TRACK 12 AUDIO
TITLE "Serrado"
PERFORMER "Djavan"
INDEX 00 03:08:58
FILE "[12]Serrado-Djavan.wav" WAVE
INDEX 01 00:00:00
TRACK 13 AUDIO
TITLE "Agua"
PERFORMER "Djavan"
INDEX 00 03:33:13
FILE "[13]Agua-Djavan.wav" WAVE
INDEX 01 00:00:00
TRACK 14 AUDIO
TITLE "Alibi"
PERFORMER "Djavan"
INDEX 00 03:39:57
FILE "[14]Alibi-Djavan.wav" WAVE
INDEX 01 00:00:00
TRACK 15 AUDIO
TITLE "Numa Esquina De Hanoi"
PERFORMER "Djavan"
INDEX 00 02:22:28
FILE "[15]Numa Esquina De Hanoi-Djavan.wav" WAVE
INDEX 01 00:00:00
TRACK 16 AUDIO
TITLE "Minha Mae"
PERFORMER "Djavan"
INDEX 00 03:09:35
FILE "[16]Minha Mae-Djavan.wav" WAVE
INDEX 01 00:00:00
TRACK 17 AUDIO
TITLE "Alagoas"
PERFORMER "Djavan"
INDEX 00 02:10:25
FILE "[17]Alagoas-Djavan.wav" WAVE
INDEX 01 00:00:00
TRACK 18 AUDIO
TITLE "Estoria De Cantador"
PERFORMER "Djavan"
INDEX 00 03:49:60
FILE "[18]Estoria De Cantador-Djavan.wav" WAVE
INDEX 01 00:00:00
TRACK 19 AUDIO
TITLE "Nereci"
PERFORMER "Djavan"
INDEX 00 04:14:65
FILE "[19]Nereci-Djavan.wav" WAVE
INDEX 01 00:00:00
TRACK 20 AUDIO
TITLE "Samba Dobrado"
PERFORMER "Djavan"
INDEX 00 03:20:57
FILE "[20]Samba Dobrado-Djavan.wav" WAVE
INDEX 01 00:00:00
TRACK 21 AUDIO
TITLE "Dupla Traica"
PERFORMER "Djavan"
INDEX 00 03:31:33
FILE "[21]Dupla Traica-Djavan.wav" WAVE
INDEX 01 00:00:00
 
Bird Of Paradise (00:45:43) : Columbia(USA)-CK 44276-(1990)

Трэклист:
01. Carnival In Rio (4:16)
02. Bird Of Paradise (5:12)
03. Apple (4:09)
04. Real (3:55)
05. Madness (4:48)
06. Stephen's Kingdom (6:11)
07. Bouquet (4:00)
08. Take Me (4:39)
09. I Will, I Won't (4:26)
10. Miss Susanna (4:07)
 
Лог EAC
Exact Audio Copy V0.99 prebeta 5 from 4. May 2009
Отчёт EAC об извлечении, выполненном 4. мая 2010, 22:54
Djavan / Bird Of Paradise
Дисковод: SONY DVD RW DRX-S70U Adapter: 2 ID: 0
Режим чтения : Достоверность
Использование точного потока : Да
Отключение кэша аудио : Да
Использование указателей C2 : Нет
Коррекция смещения при чтении : 48
Способность читать области Lead-in и Lead-out : Нет
Заполнение пропущенных сэмплов тишиной : Да
Удаление блоков с тишиной в начале и конце : Нет
При вычислениях CRC использовались нулевые сэмплы : Да
Интерфейс : Встроенный Win32-интерфейс для Win NT/2000
Выходной формат : Пользовательский кодировщик
Выбранный битрейт : 768 kBit/s
Качество : Высокий
Добавление ID3-тэга : Да
Утилита сжатия : H:\Program Files\Exact Audio Copy\Flac\flac.exe
Дополнительные параметры : -6 -V -T "ARTIST=%a" -T "TITLE=%t" -T "ALBUM=%g" -T "DATE=%y" -T "TRACKNUMBER=%n" -T "GENRE=%m" -T "COMMENT=%e" %s -o %d
TOC извлечённого CD
Трек | Старт | Длительность | Начальный сектор | Конечный сектор
---------------------------------------------------------------------
1 | 0:00.00 | 4:16.10 | 0 | 19209
2 | 4:16.10 | 5:12.27 | 19210 | 42636
3 | 9:28.37 | 4:08.48 | 42637 | 61284
4 | 13:37.10 | 3:54.70 | 61285 | 78904
5 | 17:32.05 | 4:48.00 | 78905 | 100504
6 | 22:20.05 | 6:10.65 | 100505 | 128319
7 | 28:30.70 | 3:59.65 | 128320 | 146309
8 | 32:30.60 | 4:39.02 | 146310 | 167236
9 | 37:09.62 | 4:26.25 | 167237 | 187211
10 | 41:36.12 | 4:06.45 | 187212 | 205706
Характеристики диапазона извлечения и сообщения об ошибках
Выбранный диапазон
Имя файла E:\Djavan\Bird Of Paradise\Djavan - Bird Of Paradise.wav
Пиковый уровень 100.0 %
Качество диапазона 100.0 %
CRC теста 71F11F82
CRC копии 71F11F82
Копирование... OK
Ошибок не произошло
AccurateRip: сводка
Трек 1 точное извлечение (доверие 3) [B0A726DA]
Трек 2 точное извлечение (доверие 3) [64C84D03]
Трек 3 точное извлечение (доверие 3) [59A70FB5]
Трек 4 точное извлечение (доверие 3) [FF5E0AFF]
Трек 5 точное извлечение (доверие 3) [40CB4511]
Трек 6 точное извлечение (доверие 3) [BB57689D]
Трек 7 точное извлечение (доверие 3) [CE3CA09D]
Трек 8 точное извлечение (доверие 3) [AD9B0F6F]
Трек 9 точное извлечение (доверие 3) [3B2BBC90]
Трек 10 точное извлечение (доверие 3) [B6BE2C77]
Все треки извлечены точно
Конец отчёта
 
Лог Audiochecker
AUDIOCHECKER v2.0 beta (build 457) - by Dester - opdester@freemail.hu
~~~~~~~~~~~~~~~~~~~~~~~~~~~~~~~~~~
-=== НЕ РЕДАКТИРУЙТЕ ЭТОТ ФАЙЛ! ===-
Путь: ...\Bird Of Paradise
1 -=- Djavan - Bird Of Paradise.flac -=- CDDA (100%)
174033604
 
*CUE
REM GENRE Funk
REM DATE 1988
REM DISCID 7E0AB60A
REM COMMENT "ExactAudioCopy v0.99pb5"
PERFORMER "Djavan"
TITLE "Bird Of Paradise"
FILE "Djavan - Bird Of Paradise.flac" WAVE
TRACK 01 AUDIO
TITLE "Carnival In Rio"
PERFORMER "Djavan"
INDEX 01 00:00:00
TRACK 02 AUDIO
TITLE "Bird Of Paradise"
PERFORMER "Djavan"
INDEX 00 04:14:57
INDEX 01 04:16:10
TRACK 03 AUDIO
TITLE "Apple"
PERFORMER "Djavan"
INDEX 00 09:27:40
INDEX 01 09:28:37
TRACK 04 AUDIO
TITLE "Real"
PERFORMER "Djavan"
INDEX 00 13:35:15
INDEX 01 13:37:10
TRACK 05 AUDIO
TITLE "Madness"
PERFORMER "Djavan"
INDEX 00 17:30:25
INDEX 01 17:32:05
TRACK 06 AUDIO
TITLE "Stephen's Kingdom"
PERFORMER "Djavan"
INDEX 00 22:18:15
INDEX 01 22:20:05
TRACK 07 AUDIO
TITLE "Bouquet"
PERFORMER "Djavan"
INDEX 00 28:28:37
INDEX 01 28:30:70
TRACK 08 AUDIO
TITLE "Take Me"
PERFORMER "Djavan"
INDEX 00 32:28:40
INDEX 01 32:30:60
TRACK 09 AUDIO
TITLE "I Will, I Won't"
PERFORMER "Djavan"
INDEX 00 37:08:15
INDEX 01 37:09:62
TRACK 10 AUDIO
TITLE "Miss Susanna"
PERFORMER "Djavan"
INDEX 00 41:35:15
INDEX 01 41:36:12
 
Coisa de acender (00:40:58) : Columbia(Austria)-464248 2-(1993)

Трэклист:
01. A rota do individuo (Ferrugem) (4:23)
02. Boa noite (5:49)
03. Se (4:53)
04. Linha do Equador (4:34)
05. Violeiros (4:49)
06. Andaluz (3:54)
07. Outono (4:17)
08. Alivio (4:32)
09. Baile (3:45)
 
Лог EAC
Exact Audio Copy V0.99 prebeta 5 from 4. May 2009
Отчёт EAC об извлечении, выполненном 4. мая 2010, 21:54
Djavan / Coisa de acender
Дисковод: SONY DVD RW DRX-S70U Adapter: 2 ID: 0
Режим чтения : Достоверность
Использование точного потока : Да
Отключение кэша аудио : Да
Использование указателей C2 : Нет
Коррекция смещения при чтении : 48
Способность читать области Lead-in и Lead-out : Нет
Заполнение пропущенных сэмплов тишиной : Да
Удаление блоков с тишиной в начале и конце : Нет
При вычислениях CRC использовались нулевые сэмплы : Да
Интерфейс : Встроенный Win32-интерфейс для Win NT/2000
Обработка зазоров : Добавлено к предыдущему треку
Выходной формат : Пользовательский кодировщик
Выбранный битрейт : 768 kBit/s
Качество : Высокий
Добавление ID3-тэга : Да
Утилита сжатия : H:\Program Files\Exact Audio Copy\Flac\flac.exe
Дополнительные параметры : -6 -V -T "ARTIST=%a" -T "TITLE=%t" -T "ALBUM=%g" -T "DATE=%y" -T "TRACKNUMBER=%n" -T "GENRE=%m" -T "COMMENT=%e" %s -o %d
TOC извлечённого CD
Трек | Старт | Длительность | Начальный сектор | Конечный сектор
---------------------------------------------------------------------
1 | 0:00.00 | 4:23.27 | 0 | 19751
2 | 4:23.27 | 5:49.13 | 19752 | 45939
3 | 10:12.40 | 4:52.62 | 45940 | 67901
4 | 15:05.27 | 4:34.25 | 67902 | 88476
5 | 19:39.52 | 4:49.23 | 88477 | 110174
6 | 24:29.00 | 3:54.32 | 110175 | 127756
7 | 28:23.32 | 4:17.18 | 127757 | 147049
8 | 32:40.50 | 4:32.35 | 147050 | 167484
9 | 37:13.10 | 3:44.62 | 167485 | 184346
Трек 1
Имя файла E:\Djavan\Coisa De Acender\[01]A rota do individuo (Ferrugem)-Djavan.wav
Длина предзазора 0:00:02.00
Пиковый уровень 83.9 %
Качество трека 100.0 %
CRC теста FC2FB147
CRC копии FC2FB147
Трек не обнаружен в базе AccurateRip
Копирование... OK
Трек 2
Имя файла E:\Djavan\Coisa De Acender\[02]Boa noite-Djavan.wav
Пиковый уровень 93.6 %
Качество трека 100.0 %
CRC теста 525584E8
CRC копии 525584E8
Точное извлечение (достоверность 2) [1B382322]
Копирование... OK
Трек 3
Имя файла E:\Djavan\Coisa De Acender\[03]Se-Djavan.wav
Пиковый уровень 93.2 %
Качество трека 100.0 %
CRC теста 54DDE8B9
CRC копии 54DDE8B9
Точное извлечение (достоверность 2) [C81C3B09]
Копирование... OK
Трек 4
Имя файла E:\Djavan\Coisa De Acender\[04]Linha do Equador-Djavan.wav
Пиковый уровень 92.4 %
Качество трека 100.0 %
CRC теста 9849EDD6
CRC копии 9849EDD6
Точное извлечение (достоверность 2) [7FBCB9C3]
Копирование... OK
Трек 5
Имя файла E:\Djavan\Coisa De Acender\[05]Violeiros-Djavan.wav
Пиковый уровень 93.6 %
Качество трека 100.0 %
CRC теста E9CD5B06
CRC копии E9CD5B06
Точное извлечение (достоверность 2) [62BB1F98]
Копирование... OK
Трек 6
Имя файла E:\Djavan\Coisa De Acender\[06]Andaluz-Djavan.wav
Пиковый уровень 86.4 %
Качество трека 99.9 %
CRC теста 6F2FE206
CRC копии 6F2FE206
Точное извлечение (достоверность 2) [DF2292DA]
Копирование... OK
Трек 7
Имя файла E:\Djavan\Coisa De Acender\[07]Outono-Djavan.wav
Пиковый уровень 89.2 %
Качество трека 100.0 %
CRC теста 714C3761
CRC копии 714C3761
Точное извлечение (достоверность 2) [39C5101A]
Копирование... OK
Трек 8
Имя файла E:\Djavan\Coisa De Acender\[08]Alivio-Djavan.wav
Пиковый уровень 98.4 %
Качество трека 100.0 %
CRC теста EE96DB09
CRC копии EE96DB09
Точное извлечение (достоверность 2) [6BCB0E78]
Копирование... OK
Трек 9
Имя файла E:\Djavan\Coisa De Acender\[09]Baile-Djavan.wav
Пиковый уровень 93.8 %
Качество трека 99.9 %
CRC теста FEE870B8
CRC копии FEE870B8
Точное извлечение (достоверность 2) [1D38087F]
Копирование... OK
8 трек(и) скопированы точно
1 трек(и) не содержатся в базе AccurateRip
Некоторые треки не прошли проверку на точность
Ошибок не произошло
Конец отчёта
 
Лог Audiochecker
AUDIOCHECKER v2.0 beta (build 457) - by Dester - opdester@freemail.hu
~~~~~~~~~~~~~~~~~~~~~~~~~~~~~~~~~~
-=== НЕ РЕДАКТИРУЙТЕ ЭТОТ ФАЙЛ! ===-
Путь: ...\Coisa De Acender
1 -=- [01]A rota do individuo (Ferrugem)-Djavan.flac -=- CDDA (100%)
2 -=- [02]Boa noite-Djavan.flac -=- CDDA (100%)
3 -=- [03]Se-Djavan.flac -=- CDDA (100%)
4 -=- [04]Linha do Equador-Djavan.flac -=- CDDA (100%)
5 -=- [05]Violeiros-Djavan.flac -=- CDDA (100%)
6 -=- [06]Andaluz-Djavan.flac -=- CDDA (100%)
7 -=- [07]Outono-Djavan.flac -=- CDDA (100%)
8 -=- [08]Alivio-Djavan.flac -=- CDDA (100%)
9 -=- [09]Baile-Djavan.flac -=- CDDA (100%)
Сводка 100,00% CDDA
27549028
 
*CUE
REM GENRE MPB
REM DATE 1992
REM DISCID 6D099909
REM COMMENT "ExactAudioCopy v0.99pb5"
PERFORMER "Djavan"
TITLE "Coisa de acender"
FILE "[01]A rota do individuo (Ferrugem)-Djavan.wav" WAVE
TRACK 01 AUDIO
TITLE "A rota do individuo (Ferrugem)"
PERFORMER "Djavan"
INDEX 01 00:00:00
FILE "[02]Boa noite-Djavan.wav" WAVE
TRACK 02 AUDIO
TITLE "Boa noite"
PERFORMER "Djavan"
INDEX 01 00:00:00
FILE "[03]Se-Djavan.wav" WAVE
TRACK 03 AUDIO
TITLE "Se"
PERFORMER "Djavan"
INDEX 01 00:00:00
FILE "[04]Linha do Equador-Djavan.wav" WAVE
TRACK 04 AUDIO
TITLE "Linha do Equador"
PERFORMER "Djavan"
INDEX 01 00:00:00
FILE "[05]Violeiros-Djavan.wav" WAVE
TRACK 05 AUDIO
TITLE "Violeiros"
PERFORMER "Djavan"
INDEX 01 00:00:00
FILE "[06]Andaluz-Djavan.wav" WAVE
TRACK 06 AUDIO
TITLE "Andaluz"
PERFORMER "Djavan"
INDEX 01 00:00:00
FILE "[07]Outono-Djavan.wav" WAVE
TRACK 07 AUDIO
TITLE "Outono"
PERFORMER "Djavan"
INDEX 01 00:00:00
FILE "[08]Alivio-Djavan.wav" WAVE
TRACK 08 AUDIO
TITLE "Alivio"
PERFORMER "Djavan"
INDEX 01 00:00:00
FILE "[09]Baile-Djavan.wav" WAVE
TRACK 09 AUDIO
TITLE "Baile"
PERFORMER "Djavan"
INDEX 01 00:00:00
рипы мои с оригинальных cd из моей коллекции .
14:34
260
Нет комментариев. Ваш будет первым!