Поиск

(Latin Jazz/World Fusion) Gilberto Gil - 2CD : Gil E Jorge(with Jorge Ben)(1975) / Acoustic(1994) , FLAC (tracks+.cue) , lossless

Треклист:
Gilberto Gil - 2CD : Gil E Jorge(with Jorge Ben)(1975) / Acoustic(1994)
Жанр: Latin Jazz/World Fusion
Аудио кодек: FLAC
Тип рипа: tracks+.cue
Битрейт аудио: lossless
.
.
.
.
.
.
.

Трэклист и прочее :
 
Gil E Jorge (01:18:57) : Verve(USA)-314 512 067 2-(1992)

Трэклист:
01. Meu Glorioso Sao Cristovao (8:14)
02. Nega (10:37)
03. Jurubeba (11:41)
04. Quem Mandou (Pe Na Estrada) (6:53)
05. Taj Mahal (14:47)
06. Morre O Burro, Fica O Homem (6:11)
07. Essa e Pra Tocar No Radio (6:14)
08. Filhos De Gandhi (13:11)
09. Sarro (1:10)
 
Лог EAC
Exact Audio Copy V0.99 prebeta 5 from 4. May 2009
Отчёт EAC об извлечении, выполненном 5. мая 2010, 12:45
Gilberto Gil e Jorge Ben / Gil e Jorge
Дисковод: SONY DVD RW DRX-S70U Adapter: 2 ID: 0
Режим чтения : Достоверность
Использование точного потока : Да
Отключение кэша аудио : Да
Использование указателей C2 : Нет
Коррекция смещения при чтении : 48
Способность читать области Lead-in и Lead-out : Нет
Заполнение пропущенных сэмплов тишиной : Да
Удаление блоков с тишиной в начале и конце : Нет
При вычислениях CRC использовались нулевые сэмплы : Да
Интерфейс : Встроенный Win32-интерфейс для Win NT/2000
Обработка зазоров : Добавлено к предыдущему треку
Выходной формат : Пользовательский кодировщик
Выбранный битрейт : 768 kBit/s
Качество : Высокий
Добавление ID3-тэга : Да
Утилита сжатия : H:\Program Files\Exact Audio Copy\Flac\flac.exe
Дополнительные параметры : -6 -V -T "ARTIST=%a" -T "TITLE=%t" -T "ALBUM=%g" -T "DATE=%y" -T "TRACKNUMBER=%n" -T "GENRE=%m" -T "COMMENT=%e" %s -o %d
TOC извлечённого CD
Трек | Старт | Длительность | Начальный сектор | Конечный сектор
---------------------------------------------------------------------
1 | 0:00.32 | 8:13.45 | 32 | 37051
2 | 8:14.02 | 10:37.35 | 37052 | 84861
3 | 18:51.37 | 11:40.48 | 84862 | 137409
4 | 30:32.10 | 6:52.60 | 137410 | 168369
5 | 37:24.70 | 14:46.55 | 168370 | 234874
6 | 52:11.50 | 6:10.57 | 234875 | 262681
7 | 58:22.32 | 6:14.00 | 262682 | 290731
8 | 64:36.32 | 13:11.08 | 290732 | 350064
9 | 77:47.40 | 1:09.42 | 350065 | 355281
Трек 1
Имя файла E:\Gilberto Gil e Jorge Ben\[01]Meu Glorioso Sгo Cristovгo-Gilberto Gil e Jorge Ben.wav
Длина предзазора 0:00:02.42
Пиковый уровень 74.9 %
Качество трека 100.0 %
CRC теста D68624F4
CRC копии D68624F4
Трек не обнаружен в базе AccurateRip
Копирование... OK
Трек 2
Имя файла E:\Gilberto Gil e Jorge Ben\[02]Nega-Gilberto Gil e Jorge Ben.wav
Длина предзазора 0:00:01.53
Пиковый уровень 92.9 %
Качество трека 100.0 %
CRC теста C8E75ABD
CRC копии C8E75ABD
Трек не обнаружен в базе AccurateRip
Копирование... OK
Трек 3
Имя файла E:\Gilberto Gil e Jorge Ben\[03]Jurubeba-Gilberto Gil e Jorge Ben.wav
Длина предзазора 0:00:01.82
Пиковый уровень 99.3 %
Качество трека 99.9 %
CRC теста 8066194F
CRC копии 8066194F
Трек не обнаружен в базе AccurateRip
Копирование... OK
Трек 4
Имя файла E:\Gilberto Gil e Jorge Ben\[04]Quem Mandou (Pe Na Estrada)-Gilberto Gil e Jorge Ben.wav
Длина предзазора 0:00:01.46
Пиковый уровень 89.5 %
Качество трека 100.0 %
CRC теста 70091EA0
CRC копии 70091EA0
Трек не обнаружен в базе AccurateRip
Копирование... OK
Трек 5
Имя файла E:\Gilberto Gil e Jorge Ben\[05]Taj Mahal-Gilberto Gil e Jorge Ben.wav
Длина предзазора 0:00:01.84
Пиковый уровень 87.6 %
Качество трека 100.0 %
CRC теста 14D95839
CRC копии 14D95839
Трек не обнаружен в базе AccurateRip
Копирование... OK
Трек 6
Имя файла E:\Gilberto Gil e Jorge Ben\[06]Morre O Burro, Fica O Homem-Gilberto Gil e Jorge Ben.wav
Длина предзазора 0:00:01.50
Пиковый уровень 74.6 %
Качество трека 100.0 %
CRC теста 2131F906
CRC копии 2131F906
Трек не обнаружен в базе AccurateRip
Копирование... OK
Трек 7
Имя файла E:\Gilberto Gil e Jorge Ben\[07]Essa e Pra Tocar No Radio-Gilberto Gil e Jorge Ben.wav
Длина предзазора 0:00:01.82
Пиковый уровень 63.9 %
Качество трека 100.0 %
CRC теста 08BB3B2F
CRC копии 08BB3B2F
Трек не обнаружен в базе AccurateRip
Копирование... OK
Трек 8
Имя файла E:\Gilberto Gil e Jorge Ben\[08]Filhos De Gandhi-Gilberto Gil e Jorge Ben.wav
Длина предзазора 0:00:01.42
Пиковый уровень 77.3 %
Качество трека 100.0 %
CRC теста B78070DF
CRC копии B78070DF
Трек не обнаружен в базе AccurateRip
Копирование... OK
Трек 9
Имя файла E:\Gilberto Gil e Jorge Ben\[09]Sarro-Gilberto Gil e Jorge Ben.wav
Длина предзазора 0:00:01.13
Пиковый уровень 79.6 %
Качество трека 100.0 %
CRC теста 9C93FF92
CRC копии 9C93FF92
Трек не обнаружен в базе AccurateRip
Копирование... OK
Ни одного трека нет в базе AccurateRip
Ошибок не произошло
Конец отчёта
 
Лог Audiochecker
AUDIOCHECKER v2.0 beta (build 457) - by Dester - opdester@freemail.hu
~~~~~~~~~~~~~~~~~~~~~~~~~~~~~~~~~~
-=== НЕ РЕДАКТИРУЙТЕ ЭТОТ ФАЙЛ! ===-
Путь: ...\Gilberto Gil & Jorge Ben
1 -=- [01]Meu Glorioso Sao Cristovao-Gilberto Gil e Jorge Ben.flac -=- CDDA (100%)
2 -=- [02]Nega-Gilberto Gil e Jorge Ben.flac -=- CDDA (100%)
3 -=- [03]Jurubeba-Gilberto Gil e Jorge Ben.flac -=- CDDA (100%)
4 -=- [04]Quem Mandou (Pe Na Estrada)-Gilberto Gil e Jorge Ben.flac -=- CDDA (100%)
5 -=- [05]Taj Mahal-Gilberto Gil e Jorge Ben.flac -=- CDDA (100%)
6 -=- [06]Morre O Burro, Fica O Homem-Gilberto Gil e Jorge Ben.flac -=- CDDA (100%)
7 -=- [07]Essa e Pra Tocar No Radio-Gilberto Gil e Jorge Ben.flac -=- CDDA (99%)
8 -=- [08]Filhos De Gandhi-Gilberto Gil e Jorge Ben.flac -=- CDDA (100%)
9 -=- [09]Sarro-Gilberto Gil e Jorge Ben.flac -=- CDDA (100%)
Сводка 99,89% CDDA
254629604
 
*CUE
REM GENRE Brazilian
REM DATE 1975
REM DISCID 84128109
REM COMMENT "ExactAudioCopy v0.99pb5"
PERFORMER "Gilberto Gil e Jorge Ben"
TITLE "Gil e Jorge"
FILE "[01]Meu Glorioso Sгo Cristovгo-Gilberto Gil e Jorge Ben.wav" WAVE
TRACK 01 AUDIO
TITLE "Meu Glorioso Sao Cristovгo"
PERFORMER "Gilberto Gil e Jorge Ben"
PREGAP 00:00:32
INDEX 01 00:00:00
TRACK 02 AUDIO
TITLE "Nega"
PERFORMER "Gilberto Gil e Jorge Ben"
INDEX 00 08:12:05
FILE "[02]Nega-Gilberto Gil e Jorge Ben.wav" WAVE
INDEX 01 00:00:00
TRACK 03 AUDIO
TITLE "Jurubeba"
PERFORMER "Gilberto Gil e Jorge Ben"
INDEX 00 10:35:48
FILE "[03]Jurubeba-Gilberto Gil e Jorge Ben.wav" WAVE
INDEX 01 00:00:00
TRACK 04 AUDIO
TITLE "Quem Mandou (Pe Na Estrada)"
PERFORMER "Gilberto Gil e Jorge Ben"
INDEX 00 11:39:13
FILE "[04]Quem Mandou (Pe Na Estrada)-Gilberto Gil e Jorge Ben.wav" WAVE
INDEX 01 00:00:00
TRACK 05 AUDIO
TITLE "Taj Mahal"
PERFORMER "Gilberto Gil e Jorge Ben"
INDEX 00 06:50:72
FILE "[05]Taj Mahal-Gilberto Gil e Jorge Ben.wav" WAVE
INDEX 01 00:00:00
TRACK 06 AUDIO
TITLE "Morre O Burro, Fica O Homem"
PERFORMER "Gilberto Gil e Jorge Ben"
INDEX 00 14:45:17
FILE "[06]Morre O Burro, Fica O Homem-Gilberto Gil e Jorge Ben.wav" WAVE
INDEX 01 00:00:00
TRACK 07 AUDIO
TITLE "Essa e Pra Tocar No Radio"
PERFORMER "Gilberto Gil e Jorge Ben"
INDEX 00 06:08:70
FILE "[07]Essa e Pra Tocar No Radio-Gilberto Gil e Jorge Ben.wav" WAVE
INDEX 01 00:00:00
TRACK 08 AUDIO
TITLE "Filhos De Gandhi"
PERFORMER "Gilberto Gil e Jorge Ben"
INDEX 00 06:12:43
FILE "[08]Filhos De Gandhi-Gilberto Gil e Jorge Ben.wav" WAVE
INDEX 01 00:00:00
TRACK 09 AUDIO
TITLE "Sarro"
PERFORMER "Gilberto Gil e Jorge Ben"
INDEX 00 13:09:73
FILE "[09]Sarro-Gilberto Gil e Jorge Ben.wav" WAVE
INDEX 01 00:00:00
 
Acoustic (01:13:54) : WEA/Warner Music Brasil(Germany)-4509 95324 2-(1995)

Трэклист:
01. A Novidade (5:25)
02. Tenho Sede (4:22)
03. Refazenda (3:38)
04. Realce (4:24)
05. Esoterico (5:18)
06. Drao (4:04)
07. A Paz (Leila IV) (4:53)
08. Beira Mar (4:55)
09. Sampa (3:46)
10. Parabolicamara (4:35)
11. The Secret Life Of Plants (5:14)
12. Tempo Rei (5:03)
13. Expresso 2222 (4:45)
14. Aquele Abraco (4:24)
15. Palco (4:30)
16. Toda Manina Baiana (4:38)
 
Лог EAC
Exact Audio Copy V0.99 prebeta 5 from 4. May 2009
Отчёт EAC об извлечении, выполненном 6. мая 2010, 14:36
Gilberto Gil / Acoustic
Дисковод: SONY DVD RW DRX-S70U Adapter: 2 ID: 0
Режим чтения : Достоверность
Использование точного потока : Да
Отключение кэша аудио : Да
Использование указателей C2 : Нет
Коррекция смещения при чтении : 48
Способность читать области Lead-in и Lead-out : Нет
Заполнение пропущенных сэмплов тишиной : Да
Удаление блоков с тишиной в начале и конце : Нет
При вычислениях CRC использовались нулевые сэмплы : Да
Интерфейс : Встроенный Win32-интерфейс для Win NT/2000
Обработка зазоров : Добавлено к предыдущему треку
Выходной формат : Пользовательский кодировщик
Выбранный битрейт : 768 kBit/s
Качество : Высокий
Добавление ID3-тэга : Да
Утилита сжатия : H:\Program Files\Exact Audio Copy\Flac\flac.exe
Дополнительные параметры : -6 -V -T "ARTIST=%a" -T "TITLE=%t" -T "ALBUM=%g" -T "DATE=%y" -T "TRACKNUMBER=%n" -T "GENRE=%m" -T "COMMENT=%e" %s -o %d
TOC извлечённого CD
Трек | Старт | Длительность | Начальный сектор | Конечный сектор
---------------------------------------------------------------------
1 | 0:00.00 | 5:24.68 | 0 | 24367
2 | 5:24.68 | 4:21.40 | 24368 | 43982
3 | 9:46.33 | 3:38.17 | 43983 | 60349
4 | 13:24.50 | 4:24.33 | 60350 | 80182
5 | 17:49.08 | 5:17.55 | 80183 | 104012
6 | 23:06.63 | 4:03.60 | 104013 | 122297
7 | 27:10.48 | 4:53.02 | 122298 | 144274
8 | 32:03.50 | 4:55.30 | 144275 | 166429
9 | 36:59.05 | 3:45.45 | 166430 | 183349
10 | 40:44.50 | 4:35.10 | 183350 | 203984
11 | 45:19.60 | 5:14.13 | 203985 | 227547
12 | 50:33.73 | 5:02.52 | 227548 | 250249
13 | 55:36.50 | 4:44.50 | 250250 | 271599
14 | 60:21.25 | 4:23.68 | 271600 | 291392
15 | 64:45.18 | 4:30.35 | 291393 | 311677
16 | 69:15.53 | 4:38.27 | 311678 | 332554
Трек 1
Имя файла E:\Gilberto Gil\[01]A Novidade-Gilberto Gil.wav
Длина предзазора 0:00:02.00
Пиковый уровень 100.0 %
Качество трека 100.0 %
CRC теста CF453366
CRC копии CF453366
Точное извлечение (достоверность 9) [FEAEDD58]
Копирование... OK
Трек 2
Имя файла E:\Gilberto Gil\[02]Tenho Sede-Gilberto Gil.wav
Пиковый уровень 100.0 %
Качество трека 100.0 %
CRC теста BDC8263E
CRC копии BDC8263E
Точное извлечение (достоверность 9) [13BFE5C7]
Копирование... OK
Трек 3
Имя файла E:\Gilberto Gil\[03]Refazenda-Gilberto Gil.wav
Пиковый уровень 100.0 %
Качество трека 100.0 %
CRC теста E91028A5
CRC копии E91028A5
Точное извлечение (достоверность 9) [0C4C7CAC]
Копирование... OK
Трек 4
Имя файла E:\Gilberto Gil\[04]Realce-Gilberto Gil.wav
Пиковый уровень 100.0 %
Качество трека 100.0 %
CRC теста 4E5A0EF7
CRC копии 4E5A0EF7
Точное извлечение (достоверность 9) [CE2A1733]
Копирование... OK
Трек 5
Имя файла E:\Gilberto Gil\[05]Esotйrico-Gilberto Gil.wav
Пиковый уровень 97.4 %
Качество трека 100.0 %
CRC теста 3184E0AE
CRC копии 3184E0AE
Точное извлечение (достоверность 9) [64886992]
Копирование... OK
Трек 6
Имя файла E:\Gilberto Gil\[06]Drao-Gilberto Gil.wav
Пиковый уровень 82.3 %
Качество трека 100.0 %
CRC теста 1D7EAC43
CRC копии 1D7EAC43
Точное извлечение (достоверность 9) [225E5E04]
Копирование... OK
Трек 7
Имя файла E:\Gilberto Gil\[07]A Paz (Leila IV)-Gilberto Gil.wav
Пиковый уровень 82.6 %
Качество трека 100.0 %
CRC теста BFE7316C
CRC копии BFE7316C
Точное извлечение (достоверность 9) [407F2BE5]
Копирование... OK
Трек 8
Имя файла E:\Gilberto Gil\[08]Beira Mar-Gilberto Gil.wav
Пиковый уровень 62.9 %
Качество трека 100.0 %
CRC теста 0E2F2D4F
CRC копии 0E2F2D4F
Точное извлечение (достоверность 9) [7ABAA58B]
Копирование... OK
Трек 9
Имя файла E:\Gilberto Gil\[09]Sampa-Gilberto Gil.wav
Пиковый уровень 80.6 %
Качество трека 100.0 %
CRC теста 0FAC475E
CRC копии 0FAC475E
Точное извлечение (достоверность 8) [524F593E]
Копирование... OK
Трек 10
Имя файла E:\Gilberto Gil\[10]Parabolicamarб-Gilberto Gil.wav
Пиковый уровень 99.9 %
Качество трека 100.0 %
CRC теста 85782D08
CRC копии 85782D08
Точное извлечение (достоверность 9) [F46CBE56]
Копирование... OK
Трек 11
Имя файла E:\Gilberto Gil\[11]The Secret Life Of Plants-Gilberto Gil.wav
Пиковый уровень 100.0 %
Качество трека 100.0 %
CRC теста 4D438DA2
CRC копии 4D438DA2
Точное извлечение (достоверность 8) [58FD8A6F]
Копирование... OK
Трек 12
Имя файла E:\Gilberto Gil\[12]Tempo Rei-Gilberto Gil.wav
Пиковый уровень 99.2 %
Качество трека 100.0 %
CRC теста BDD12F50
CRC копии BDD12F50
Точное извлечение (достоверность 7) [70D3C895]
Копирование... OK
Трек 13
Имя файла E:\Gilberto Gil\[13]Expresso 2222-Gilberto Gil.wav
Пиковый уровень 100.0 %
Качество трека 100.0 %
CRC теста CF8DCAB1
CRC копии CF8DCAB1
Точное извлечение (достоверность 9) [F235EAC2]
Копирование... OK
Трек 14
Имя файла E:\Gilberto Gil\[14]Aquele Abraзo-Gilberto Gil.wav
Пиковый уровень 97.3 %
Качество трека 100.0 %
CRC теста 698E441B
CRC копии 698E441B
Точное извлечение (достоверность 9) [F3BED537]
Копирование... OK
Трек 15
Имя файла E:\Gilberto Gil\[15]Palco-Gilberto Gil.wav
Пиковый уровень 98.9 %
Качество трека 100.0 %
CRC теста 2809F5F9
CRC копии 2809F5F9
Точное извлечение (достоверность 9) [01929AD6]
Копирование... OK
Трек 16
Имя файла E:\Gilberto Gil\[16]Toda Manina Baiana-Gilberto Gil.wav
Пиковый уровень 92.4 %
Качество трека 100.0 %
CRC теста EEEE2157
CRC копии EEEE2157
Точное извлечение (достоверность 8) [83736440]
Копирование... OK
Все треки извлечены точно
Ошибок не произошло
Конец отчёта
 
Лог Audiochecker
AUDIOCHECKER v2.0 beta (build 457) - by Dester - opdester@freemail.hu
~~~~~~~~~~~~~~~~~~~~~~~~~~~~~~~~~~
-=== DO NOT EDIT THIS FILE! ===-
Путь: ...\Gilberto Gil
01 -=- [01]A Novidade-Gilberto Gil.flac -=- CDDA (100%)
02 -=- [02]Tenho Sede-Gilberto Gil.flac -=- CDDA (100%)
03 -=- [03]Refazenda-Gilberto Gil.flac -=- CDDA (100%)
04 -=- [04]Realce-Gilberto Gil.flac -=- CDDA (100%)
05 -=- [05]Esotйrico-Gilberto Gil.flac -=- CDDA (99%)
06 -=- [06]Drao-Gilberto Gil.flac -=- CDDA (100%)
07 -=- [07]A Paz (Leila IV)-Gilberto Gil.flac -=- CDDA (100%)
08 -=- [08]Beira Mar-Gilberto Gil.flac -=- CDDA (100%)
09 -=- [09]Sampa-Gilberto Gil.flac -=- CDDA (100%)
10 -=- [10]Parabolicamarб-Gilberto Gil.flac -=- CDDA (100%)
11 -=- [11]The Secret Life Of Plants-Gilberto Gil.flac -=- CDDA (100%)
12 -=- [12]Tempo Rei-Gilberto Gil.flac -=- CDDA (100%)
13 -=- [13]Expresso 2222-Gilberto Gil.flac -=- CDDA (100%)
14 -=- [14]Aquele Abraзo-Gilberto Gil.flac -=- CDDA (100%)
15 -=- [15]Palco-Gilberto Gil.flac -=- CDDA (100%)
16 -=- [16]Toda Manina Baiana-Gilberto Gil.flac -=- CDDA (100%)
Сводка 99,94% CDDA
197724372
 
*CUE
REM GENRE Jazz
REM DATE 1994
REM DISCID E2115210
REM COMMENT "ExactAudioCopy v0.99pb5"
PERFORMER "Gilberto Gil"
TITLE "Acoustic"
FILE "[01]A Novidade-Gilberto Gil.wav" WAVE
TRACK 01 AUDIO
TITLE "A Novidade"
PERFORMER "Gilberto Gil"
INDEX 01 00:00:00
FILE "[02]Tenho Sede-Gilberto Gil.wav" WAVE
TRACK 02 AUDIO
TITLE "Tenho Sede"
PERFORMER "Gilberto Gil"
INDEX 01 00:00:00
FILE "[03]Refazenda-Gilberto Gil.wav" WAVE
TRACK 03 AUDIO
TITLE "Refazenda"
PERFORMER "Gilberto Gil"
INDEX 01 00:00:00
FILE "[04]Realce-Gilberto Gil.wav" WAVE
TRACK 04 AUDIO
TITLE "Realce"
PERFORMER "Gilberto Gil"
INDEX 01 00:00:00
FILE "[05]Esotйrico-Gilberto Gil.wav" WAVE
TRACK 05 AUDIO
TITLE "Esotйrico"
PERFORMER "Gilberto Gil"
INDEX 01 00:00:00
FILE "[06]Drao-Gilberto Gil.wav" WAVE
TRACK 06 AUDIO
TITLE "Drao"
PERFORMER "Gilberto Gil"
INDEX 01 00:00:00
FILE "[07]A Paz (Leila IV)-Gilberto Gil.wav" WAVE
TRACK 07 AUDIO
TITLE "A Paz (Leila IV)"
PERFORMER "Gilberto Gil"
INDEX 01 00:00:00
FILE "[08]Beira Mar-Gilberto Gil.wav" WAVE
TRACK 08 AUDIO
TITLE "Beira Mar"
PERFORMER "Gilberto Gil"
INDEX 01 00:00:00
FILE "[09]Sampa-Gilberto Gil.wav" WAVE
TRACK 09 AUDIO
TITLE "Sampa"
PERFORMER "Gilberto Gil"
INDEX 01 00:00:00
FILE "[10]Parabolicamarб-Gilberto Gil.wav" WAVE
TRACK 10 AUDIO
TITLE "Parabolicamarб"
PERFORMER "Gilberto Gil"
INDEX 01 00:00:00
FILE "[11]The Secret Life Of Plants-Gilberto Gil.wav" WAVE
TRACK 11 AUDIO
TITLE "The Secret Life Of Plants"
PERFORMER "Gilberto Gil"
INDEX 01 00:00:00
FILE "[12]Tempo Rei-Gilberto Gil.wav" WAVE
TRACK 12 AUDIO
TITLE "Tempo Rei"
PERFORMER "Gilberto Gil"
INDEX 01 00:00:00
FILE "[13]Expresso 2222-Gilberto Gil.wav" WAVE
TRACK 13 AUDIO
TITLE "Expresso 2222"
PERFORMER "Gilberto Gil"
INDEX 01 00:00:00
FILE "[14]Aquele Abraзo-Gilberto Gil.wav" WAVE
TRACK 14 AUDIO
TITLE "Aquele Abraзo"
PERFORMER "Gilberto Gil"
INDEX 01 00:00:00
FILE "[15]Palco-Gilberto Gil.wav" WAVE
TRACK 15 AUDIO
TITLE "Palco"
PERFORMER "Gilberto Gil"
INDEX 01 00:00:00
FILE "[16]Toda Manina Baiana-Gilberto Gil.wav" WAVE
TRACK 16 AUDIO
TITLE "Toda Manina Baiana"
PERFORMER "Gilberto Gil"
INDEX 01 00:00:00
рипы мои с оригинальных cd из моей коллекции
14:36
298
Нет комментариев. Ваш будет первым!