Поиск

(Latin Jazz) Ruben Gonzalez - Momentos - 2005, FLAC (image+.cue), lossless

Треклист:
Ruben Gonzalez - Momentos
Жанр: Latin Jazz
Год выпуска диска: 2005
Производитель диска: Россия
Аудио кодек: FLAC
Тип рипа: image+.cue
Битрейт аудио: lossless
Продолжительность: 45:12
Трэклист:
1.Date una Vueltecita
2.Enriqueta
3.Fabiando
4.Como Siento Yo
5.Nuetra Cancion
6.Prestame la Bicicleta
7.Indestructible
8.Ambrosio
9.Mi Congojas
10.Zacundo
11.Yo Te Enseno Lola
12.Que Infelicidad
13.Fantoche
14.Tu Corazon Otra Vez
15.Todo Aquel Ayer
Рип от kursebeli, спасибо!
 
EAC extraction logfile
Exact Audio Copy V0.99 prebeta 4 from 23. January 2008
EAC extraction logfile from 11. March 2002, 6:47
Rubйn Gonzбlez / Momentos
Used drive : ASUS DRW-1814BL Adapter: 0 ID: 0
Read mode : Secure
Utilize accurate stream : Yes
Defeat audio cache : Yes
Make use of C2 pointers : No
Read offset correction : 6
Overread into Lead-In and Lead-Out : No
Fill up missing offset samples with silence : Yes
Delete leading and trailing silent blocks : No
Null samples used in CRC calculations : Yes
Used interface : Native Win32 interface for Win NT & 2000
Used output format : Internal WAV Routines
Sample format : 44.100 Hz; 16 Bit; Stereo
TOC of the extracted CD
Track | Start | Length | Start sector | End sector
---------------------------------------------------------
1 | 0:00.00 | 4:15.58 | 0 | 19182
2 | 4:15.58 | 3:06.04 | 19183 | 33136
3 | 7:21.62 | 3:52.64 | 33137 | 50600
4 | 11:14.51 | 3:02.33 | 50601 | 64283
5 | 14:17.09 | 2:33.29 | 64284 | 75787
6 | 16:50.38 | 2:46.55 | 75788 | 88292
7 | 19:37.18 | 2:57.20 | 88293 | 101587
8 | 22:34.38 | 3:14.74 | 101588 | 116211
9 | 25:49.37 | 2:49.64 | 116212 | 128950
10 | 28:39.26 | 2:03.08 | 128951 | 138183
11 | 30:42.34 | 3:18.30 | 138184 | 153063
12 | 34:00.64 | 2:21.03 | 153064 | 163641
13 | 36:21.67 | 2:29.08 | 163642 | 174824
14 | 38:51.00 | 3:16.14 | 174825 | 189538
15 | 42:07.14 | 3:05.22 | 189539 | 203435
Range status and errors
Selected range
Filename C:\Users\kursebeli\Desktop\Rubйn Gonzбlez - Momentos\Rubйn Gonzбlez - Momentos.wav
Peak level 100.0 %
Range quality 100.0 %
Copy CRC D92B6AE5
Copy OK
No errors occurred
End of status report
 
Audiochecker logfile
Started at: четверг, 22. 10. 2009. - 11:57.56
1 file found
1 -===- D:\Temp\Images\1\Ruben Gonzalez Momentos\Rubйn Gonzбlez - Momentos.flac
Extracted successfully
Conclusion: this track is CDDA with probability 99%
Tempfile successfully deleted.
Finished at: четверг, 22. 10. 2009. - 12:02.33 (operation time: 0:04.36)
Компиляция записей Рубена 65-75 годов. Душевный альбомчик. Приятных впечатлений!
09:30
295
Нет комментариев. Ваш будет первым!