Поиск

(Blue Grass, Folk, Jazz) Bela Fleck - Throw Down Your Heart, Tales From the Acoustic Planet Vol. 3 - 2009, FLAC (tracks+.cue), lossless

Треклист:
Bela Fleck - Throw Down Your Heart, Tales From the Acoustic Planet Vol. 3
Жанр: Blue Grass, Folk, Jazz
Год выпуска диска: 2009
Производитель диска: США
Аудио кодек: FLAC
Тип рипа: tracks+.cue
Битрейт аудио: lossless
Продолжительность: 1 час 13 мин 53 сек
Трэклист:
01. Tulinesangala {2:51}
02. Kinetsa {4:16}
03. Ah Ndiya {3:50}
04. Kabibi {2:30}
05. Angelina {2:51}
06. D'Gary Jam {6:16}
07. Throw Down Your Heart {5:08}
08. Thula Mana {4:00}
09. Warenziente {2:55}
10. Buribalal {4:33}
11. Zawose {3:20}
12. Ajula\Mbamba {4:31}
13. Pakugyenda Balebauo {2:58}
14. Jesus Is The Only Answer {3:25}
15. Matitu {4:19}
16. Mariam {3:51}
17. Jorolet {5:05}
18. Dunia Haina Wema\thumb fun {7:14}
 
лог EAC
EAC extraction logfile from 23. July 2009, 0:02 for CD
Bela Fleck / Throw Down Your Heart, Tales From the Acoustic Planet Vol. 3
Used drive : HL-DT-STDVDRAM GSA-T20L Adapter: 1 ID: 0
Read mode : Secure with NO C2, accurate stream, disable cache
Read offset correction : 667
Overread into Lead-In and Lead-Out : No
Used output format : C:\Program Files\FLAC\flac.exe (User Defined Encoder)
1024 kBit/s
Additional command line options : -V -8 -T "artist=%a" -T "title=%t" -T "album=%g" -T "date=%y" -T "tracknumber=%n" -T "genre=%m" %s
Other options :
Fill up missing offset samples with silence : Yes
Delete leading and trailing silent blocks : No
Native Win32 interface for Win NT & 2000
Track 1
Filename C:\Lossless\Bela Fleck - Throw Down Your Heart, Tales From the Acoustic Planet Vol. 3 - 2009\01 - Tulinesangala.wav
Pre-gap length 0:00:02.00
Peak level 80.3 %
Track quality 100.0 %
Test CRC 1C465C63
Copy CRC 1C465C63
Copy OK
Track 2
Filename C:\Lossless\Bela Fleck - Throw Down Your Heart, Tales From the Acoustic Planet Vol. 3 - 2009\02 - Kinetsa.wav
Peak level 99.4 %
Track quality 100.0 %
Test CRC DF28B883
Copy CRC DF28B883
Copy OK
Track 3
Filename C:\Lossless\Bela Fleck - Throw Down Your Heart, Tales From the Acoustic Planet Vol. 3 - 2009\03 - Ah Ndiya.wav
Peak level 94.1 %
Track quality 100.0 %
Test CRC EE38E1EE
Copy CRC EE38E1EE
Copy OK
Track 4
Filename C:\Lossless\Bela Fleck - Throw Down Your Heart, Tales From the Acoustic Planet Vol. 3 - 2009\04 - Kabibi.wav
Pre-gap length 0:00:02.10
Peak level 91.9 %
Track quality 100.0 %
Test CRC 66CD5EC8
Copy CRC 66CD5EC8
Copy OK
Track 5
Filename C:\Lossless\Bela Fleck - Throw Down Your Heart, Tales From the Acoustic Planet Vol. 3 - 2009\05 - Angelina.wav
Pre-gap length 0:00:02.02
Peak level 95.1 %
Track quality 100.0 %
Test CRC CDD5A3AA
Copy CRC CDD5A3AA
Copy OK
Track 6
Filename C:\Lossless\Bela Fleck - Throw Down Your Heart, Tales From the Acoustic Planet Vol. 3 - 2009\06 - D'Gary Jam.wav
Pre-gap length 0:00:02.00
Peak level 99.0 %
Track quality 99.9 %
Test CRC 914775EE
Copy CRC 914775EE
Copy OK
Track 7
Filename C:\Lossless\Bela Fleck - Throw Down Your Heart, Tales From the Acoustic Planet Vol. 3 - 2009\07 - Throw Down Your Heart.wav
Pre-gap length 0:00:00.15
Peak level 98.3 %
Track quality 100.0 %
Test CRC 97EDFDBF
Copy CRC 97EDFDBF
Copy OK
Track 8
Filename C:\Lossless\Bela Fleck - Throw Down Your Heart, Tales From the Acoustic Planet Vol. 3 - 2009\08 - Thula Mana.wav
Peak level 95.3 %
Track quality 100.0 %
Test CRC 05A5BCE3
Copy CRC 05A5BCE3
Copy OK
Track 9
Filename C:\Lossless\Bela Fleck - Throw Down Your Heart, Tales From the Acoustic Planet Vol. 3 - 2009\09 - Warenziente.wav
Peak level 90.5 %
Track quality 100.0 %
Test CRC 38CE57E0
Copy CRC 38CE57E0
Copy OK
Track 10
Filename C:\Lossless\Bela Fleck - Throw Down Your Heart, Tales From the Acoustic Planet Vol. 3 - 2009\10 - Buribalal.wav
Pre-gap length 0:00:02.57
Peak level 98.9 %
Track quality 100.0 %
Test CRC 4E81331E
Copy CRC 4E81331E
Copy OK
Track 11
Filename C:\Lossless\Bela Fleck - Throw Down Your Heart, Tales From the Acoustic Planet Vol. 3 - 2009\11 - Zawose.wav
Pre-gap length 0:00:00.17
Peak level 91.0 %
Track quality 100.0 %
Test CRC 7DE67612
Copy CRC 7DE67612
Copy OK
Track 12
Filename C:\Lossless\Bela Fleck - Throw Down Your Heart, Tales From the Acoustic Planet Vol. 3 - 2009\12 - Ajula-Mbamba.wav
Peak level 97.1 %
Track quality 100.0 %
Test CRC 6AACABD8
Copy CRC 6AACABD8
Copy OK
Track 13
Filename C:\Lossless\Bela Fleck - Throw Down Your Heart, Tales From the Acoustic Planet Vol. 3 - 2009\13 - Pakugyenda Balebauo.wav
Pre-gap length 0:00:01.41
Peak level 87.2 %
Track quality 100.0 %
Test CRC E0AEB94F
Copy CRC E0AEB94F
Copy OK
Track 14
Filename C:\Lossless\Bela Fleck - Throw Down Your Heart, Tales From the Acoustic Planet Vol. 3 - 2009\14 - Jesus Is The Only Answer.wav
Peak level 98.6 %
Track quality 100.0 %
Test CRC DA657DC4
Copy CRC DA657DC4
Copy OK
Track 15
Filename C:\Lossless\Bela Fleck - Throw Down Your Heart, Tales From the Acoustic Planet Vol. 3 - 2009\15 - Matitu.wav
Peak level 94.0 %
Track quality 100.0 %
Test CRC 56A8A14C
Copy CRC 56A8A14C
Copy OK
Track 16
Filename C:\Lossless\Bela Fleck - Throw Down Your Heart, Tales From the Acoustic Planet Vol. 3 - 2009\16 - Mariam.wav
Peak level 98.5 %
Track quality 99.9 %
Test CRC C65A8542
Copy CRC C65A8542
Copy OK
Track 17
Filename C:\Lossless\Bela Fleck - Throw Down Your Heart, Tales From the Acoustic Planet Vol. 3 - 2009\17 - Jorolet.wav
Pre-gap length 0:00:01.46
Peak level 90.1 %
Track quality 100.0 %
Test CRC 28D65B93
Copy CRC 28D65B93
Copy OK
Track 18
Filename C:\Lossless\Bela Fleck - Throw Down Your Heart, Tales From the Acoustic Planet Vol. 3 - 2009\18 - Dunia Haina Wema-thumb fun.wav
Pre-gap length 0:00:03.35
Peak level 79.7 %
Track quality 100.0 %
Test CRC 96AF939D
Copy CRC 96AF939D
Copy OK
No errors occured
End of status report
 
лог Audiocheker
AUDIOCHECKER v2.0 beta (build 457) - by Dester - opdester@freemail.hu
~~~~~~~~~~~~~~~~~~~~~~~~~~~~~~~~~~
Started at: вторник, 20. 10. 2009. - 9:35.49
18 files found
01 -===- G:\- раздаю -\Bela_Fleck_-_Throw_Down_Your_Heart,_Tales_From_the_Acoustic_Planet_Vol_3_(2009)_[rutracker.org]\01 - Tulinesangala.flac
Extracted successfully
Conclusion: this track is CDDA with probability 100%
Tempfile successfully deleted.
02 -===- G:\- раздаю -\Bela_Fleck_-_Throw_Down_Your_Heart,_Tales_From_the_Acoustic_Planet_Vol_3_(2009)_[rutracker.org]\02 - Kinetsa.flac
Extracted successfully
Conclusion: this track is CDDA with probability 100%
Tempfile successfully deleted.
03 -===- G:\- раздаю -\Bela_Fleck_-_Throw_Down_Your_Heart,_Tales_From_the_Acoustic_Planet_Vol_3_(2009)_[rutracker.org]\03 - Ah Ndiya.flac
Extracted successfully
Conclusion: this track is CDDA with probability 100%
Tempfile successfully deleted.
04 -===- G:\- раздаю -\Bela_Fleck_-_Throw_Down_Your_Heart,_Tales_From_the_Acoustic_Planet_Vol_3_(2009)_[rutracker.org]\04 - Kabibi.flac
Extracted successfully
Conclusion: this track is CDDA with probability 100%
Tempfile successfully deleted.
05 -===- G:\- раздаю -\Bela_Fleck_-_Throw_Down_Your_Heart,_Tales_From_the_Acoustic_Planet_Vol_3_(2009)_[rutracker.org]\05 - Angelina.flac
Extracted successfully
Conclusion: this track is CDDA with probability 100%
Tempfile successfully deleted.
06 -===- G:\- раздаю -\Bela_Fleck_-_Throw_Down_Your_Heart,_Tales_From_the_Acoustic_Planet_Vol_3_(2009)_[rutracker.org]\06 - D'Gary Jam.flac
Extracted successfully
Conclusion: this track is CDDA with probability 100%
Tempfile successfully deleted.
07 -===- G:\- раздаю -\Bela_Fleck_-_Throw_Down_Your_Heart,_Tales_From_the_Acoustic_Planet_Vol_3_(2009)_[rutracker.org]\07 - Throw Down Your Heart.flac
Extracted successfully
Conclusion: this track is CDDA with probability 100%
Tempfile successfully deleted.
08 -===- G:\- раздаю -\Bela_Fleck_-_Throw_Down_Your_Heart,_Tales_From_the_Acoustic_Planet_Vol_3_(2009)_[rutracker.org]\08 - Thula Mana.flac
Extracted successfully
Conclusion: this track is CDDA with probability 100%
Tempfile successfully deleted.
09 -===- G:\- раздаю -\Bela_Fleck_-_Throw_Down_Your_Heart,_Tales_From_the_Acoustic_Planet_Vol_3_(2009)_[rutracker.org]\09 - Warenziente.flac
Extracted successfully
Conclusion: this track is CDDA with probability 100%
Tempfile successfully deleted.
10 -===- G:\- раздаю -\Bela_Fleck_-_Throw_Down_Your_Heart,_Tales_From_the_Acoustic_Planet_Vol_3_(2009)_[rutracker.org]\10 - Buribalal.flac
Extracted successfully
Conclusion: this track is CDDA with probability 100%
Tempfile successfully deleted.
11 -===- G:\- раздаю -\Bela_Fleck_-_Throw_Down_Your_Heart,_Tales_From_the_Acoustic_Planet_Vol_3_(2009)_[rutracker.org]\11 - Zawose.flac
Extracted successfully
Conclusion: this track is CDDA with probability 100%
Tempfile successfully deleted.
12 -===- G:\- раздаю -\Bela_Fleck_-_Throw_Down_Your_Heart,_Tales_From_the_Acoustic_Planet_Vol_3_(2009)_[rutracker.org]\12 - Ajula-Mbamba.flac
Extracted successfully
Conclusion: this track is CDDA with probability 100%
Tempfile successfully deleted.
13 -===- G:\- раздаю -\Bela_Fleck_-_Throw_Down_Your_Heart,_Tales_From_the_Acoustic_Planet_Vol_3_(2009)_[rutracker.org]\13 - Pakugyenda Balebauo.flac
Extracted successfully
Conclusion: this track is CDDA with probability 100%
Tempfile successfully deleted.
14 -===- G:\- раздаю -\Bela_Fleck_-_Throw_Down_Your_Heart,_Tales_From_the_Acoustic_Planet_Vol_3_(2009)_[rutracker.org]\14 - Jesus Is The Only Answer.flac
Extracted successfully
Conclusion: this track is CDDA with probability 100%
Tempfile successfully deleted.
15 -===- G:\- раздаю -\Bela_Fleck_-_Throw_Down_Your_Heart,_Tales_From_the_Acoustic_Planet_Vol_3_(2009)_[rutracker.org]\15 - Matitu.flac
Extracted successfully
Conclusion: this track is CDDA with probability 100%
Tempfile successfully deleted.
16 -===- G:\- раздаю -\Bela_Fleck_-_Throw_Down_Your_Heart,_Tales_From_the_Acoustic_Planet_Vol_3_(2009)_[rutracker.org]\16 - Mariam.flac
Extracted successfully
Conclusion: this track is CDDA with probability 100%
Tempfile successfully deleted.
17 -===- G:\- раздаю -\Bela_Fleck_-_Throw_Down_Your_Heart,_Tales_From_the_Acoustic_Planet_Vol_3_(2009)_[rutracker.org]\17 - Jorolet.flac
Extracted successfully
Conclusion: this track is CDDA with probability 99%
Tempfile successfully deleted.
18 -===- G:\- раздаю -\Bela_Fleck_-_Throw_Down_Your_Heart,_Tales_From_the_Acoustic_Planet_Vol_3_(2009)_[rutracker.org]\18 - Dunia Haina Wema-thumb fun.flac
Extracted successfully
Conclusion: this track is CDDA with probability 100%
Tempfile successfully deleted.
This album (Bela_Fleck_-_Throw_Down_Your_Heart,_Tales_From_the_Acoustic_Planet_Vol_3_(2009)_[rutracker.org]) seems to be CDDA with probability 99,94%
Finished at: вторник, 20. 10. 2009. - 9:51.23 (operation time: 0:15.33)
Доп. информация: Источник - The Pirate Bay (релизёр Pastafari)
Download available for power users only.
08:29
206
Нет комментариев. Ваш будет первым!