Поиск

(African Jazz / World Fusion) Hugh Masekela - Phola - 2008 [2009], FLAC (tracks+.cue), lossless

(African Jazz / World Fusion) Hugh Masekela - Phola - 2008 [2009], FLAC (tracks+.cue), lossless
Треклист:
Hugh Masekela - Phola
Жанр: African Jazz / World Fusion
Год выпуска : 2008
Год выпуска диска: 2009
Лейбл: Times Square Records
Аудио кодек: FLAC
Тип рипа: tracks+.cue
Битрейт аудио: lossless
Продолжительность: 00:55:18
Рип: What CD


01. Mwanayu Wakula (4:52)
02. Ghana (5:26)
03. Bring It Back Home (5:32)
04. Malungelo (5:57)
05. Moz (5:35)
06. Sonnyboy (7:16)
07. Weather (5:34)
08. The Joke of Life (Brinca de Vivre) (6:06)
09. Hunger (9:01)

 
EAC
Exact Audio Copy V0.99 prebeta 5 from 4. May 2009
EAC extraction logfile from 19. October 2009, 15:37
Hugh Masekela / Phola
Used drive : TSSTcorpCDDVDW TS-L632N Adapter: 1 ID: 0
Read mode : Secure
Utilize accurate stream : Yes
Defeat audio cache : Yes
Make use of C2 pointers : No
Read offset correction : 6
Overread into Lead-In and Lead-Out : No
Fill up missing offset samples with silence : Yes
Delete leading and trailing silent blocks : No
Null samples used in CRC calculations : Yes
Used interface : Native Win32 interface for Win NT & 2000
Gap handling : Appended to previous track
Used output format : User Defined Encoder
Selected bitrate : 128 kBit/s
Quality : High
Add ID3 tag : No
Command line compressor : C:\Program Files (x86)\Exact Audio Copy\Flac\flac.exe
Additional command line options : -V -8 -T "artist=%a" -T "title=%t" -T "album=%g" -T "date=%y" -T "tracknumber=%n" -T "genre=%m" %s
TOC of the extracted CD
Track | Start | Length | Start sector | End sector
---------------------------------------------------------
1 | 0:00.00 | 4:52.34 | 0 | 21933
2 | 4:52.34 | 5:25.46 | 21934 | 46354
3 | 10:18.05 | 5:31.54 | 46355 | 71233
4 | 15:49.59 | 5:56.57 | 71234 | 97990
5 | 21:46.41 | 5:35.26 | 97991 | 123141
6 | 27:21.67 | 7:15.55 | 123142 | 155821
7 | 34:37.47 | 5:34.34 | 155822 | 180905
8 | 40:12.06 | 6:05.72 | 180906 | 208352
9 | 46:18.03 | 9:00.68 | 208353 | 248920
Track 1
Filename C:\Users\Public\Hugh Masekela - Phola\01 - Mwanayu Wakula.wav
Pre-gap length 0:00:02.00
Peak level 97.7 %
Track quality 100.0 %
Test CRC 7F384DE8
Copy CRC 7F384DE8
Cannot be verified as accurate (confidence 4) [B489732E], AccurateRip returned [29720C64]
Copy OK
Track 2
Filename C:\Users\Public\Hugh Masekela - Phola\02 - Ghana.wav
Pre-gap length 0:00:02.00
Peak level 97.7 %
Track quality 100.0 %
Test CRC B8017C1E
Copy CRC B8017C1E
Cannot be verified as accurate (confidence 4) [FC7B4314], AccurateRip returned [F26347C6]
Copy OK
Track 3
Filename C:\Users\Public\Hugh Masekela - Phola\03 - Bring It Back Home.wav
Pre-gap length 0:00:02.00
Peak level 97.7 %
Track quality 99.9 %
Test CRC 459A3B93
Copy CRC 459A3B93
Cannot be verified as accurate (confidence 4) [6FAF9F4A], AccurateRip returned [AFCC6938]
Copy OK
Track 4
Filename C:\Users\Public\Hugh Masekela - Phola\04 - Malungelo.wav
Pre-gap length 0:00:02.00
Peak level 97.7 %
Track quality 100.0 %
Test CRC 3A8BEEB1
Copy CRC 3A8BEEB1
Cannot be verified as accurate (confidence 4) [8C94D782], AccurateRip returned [2B48262A]
Copy OK
Track 5
Filename C:\Users\Public\Hugh Masekela - Phola\05 - Moz.wav
Pre-gap length 0:00:02.00
Peak level 97.7 %
Track quality 99.9 %
Test CRC 59DDADEB
Copy CRC 59DDADEB
Cannot be verified as accurate (confidence 4) [1DB024CF], AccurateRip returned [C0C139AB]
Copy OK
Track 6
Filename C:\Users\Public\Hugh Masekela - Phola\06 - Sonnyboy.wav
Pre-gap length 0:00:02.00
Peak level 97.7 %
Track quality 100.0 %
Test CRC 7E957BEF
Copy CRC 7E957BEF
Cannot be verified as accurate (confidence 4) [CA8042E6], AccurateRip returned [41BDB460]
Copy OK
Track 7
Filename C:\Users\Public\Hugh Masekela - Phola\07 - Weather.wav
Pre-gap length 0:00:02.00
Peak level 97.7 %
Track quality 100.0 %
Test CRC 5988AD92
Copy CRC 5988AD92
Cannot be verified as accurate (confidence 4) [CAC19DAF], AccurateRip returned [2D6EFB87]
Copy OK
Track 8
Filename C:\Users\Public\Hugh Masekela - Phola\08 - The Joke of Life (Brinca de Vivre).wav
Pre-gap length 0:00:02.00
Peak level 97.7 %
Track quality 100.0 %
Test CRC 7E4D9A15
Copy CRC 7E4D9A15
Cannot be verified as accurate (confidence 4) [DE41663A], AccurateRip returned [8AFE069E]
Copy OK
Track 9
Filename C:\Users\Public\Hugh Masekela - Phola\09 - Hunger.wav
Pre-gap length 0:00:02.00
Peak level 97.7 %
Track quality 100.0 %
Test CRC 2CBBC2D5
Copy CRC 2CBBC2D5
Cannot be verified as accurate (confidence 4) [C5EE766D], AccurateRip returned [53876F0C]
Copy OK
No tracks could be verified as accurate
You may have a different pressing from the one(s) in the database
No errors occurred
End of status report
 
CUE
REM GENRE Jazz
REM DATE 2008
REM DISCID 700CF609
REM COMMENT "ExactAudioCopy v0.99pb5"
FILE "01 - Mwanayu Wakula.wav" WAVE
TRACK 01 AUDIO
INDEX 01 00:00:00
TRACK 02 AUDIO
INDEX 00 04:50:34
FILE "02 - Ghana.wav" WAVE
INDEX 01 00:00:00
TRACK 03 AUDIO
INDEX 00 05:23:46
FILE "03 - Bring It Back Home.wav" WAVE
INDEX 01 00:00:00
TRACK 04 AUDIO
INDEX 00 05:29:54
FILE "04 - Malungelo.wav" WAVE
INDEX 01 00:00:00
TRACK 05 AUDIO
INDEX 00 05:54:57
FILE "05 - Moz.wav" WAVE
INDEX 01 00:00:00
TRACK 06 AUDIO
INDEX 00 05:33:26
FILE "06 - Sonnyboy.wav" WAVE
INDEX 01 00:00:00
TRACK 07 AUDIO
INDEX 00 07:13:55
FILE "07 - Weather.wav" WAVE
INDEX 01 00:00:00
TRACK 08 AUDIO
INDEX 00 05:32:34
FILE "08 - The Joke of Life (Brinca de Vivre).wav" WAVE
INDEX 01 00:00:00
TRACK 09 AUDIO
INDEX 00 06:03:72
FILE "09 - Hunger.wav" WAVE
INDEX 01 00:00:00

Jimmy Dludlu - Guitar (Acoustic), Tracking
Denny Lalouette - Bass
Stewart Levine - Clarinet
Hugh Masekela - Flugelhorn, Vocals, Vocals (bckgr), Executive Producer
Arthur Tshabalala - Piano (Electric), Fender Rhodes
По всем вопросам пишите личное сообщение пользователю M0p94ok.
08:31
207
Нет комментариев. Ваш будет первым!