Поиск

(Latin Jazz, Piano Jazz) Hernan Lugano - La Zurda - 1996, FLAC (tracks+.cue), lossless

(Latin Jazz, Piano Jazz) Hernan Lugano - La Zurda - 1996, FLAC (tracks+.cue), lossless
Треклист:
♦ Hernan Lugano - La Zurda ♦
Жанр: Latin Jazz, Piano Jazz
Страна-производитель диска: Denmark
Год издания: 1996
Издатель (лейбл): Umarecords
Номер по каталогу: UMA 2860
Аудиокодек: FLAC (*.flac)
Тип рипа: tracks+.cue
Битрейт аудио: lossless
Продолжительность: 01:03:20
Источник (релизер): Рип с диска.
Наличие сканов в содержимом раздачи: да
Треклист:
01. A La Vanguardia Vieja [07:42]
02. Hamaca Paraguaya [11:13]
03. Hun [07:37]
04. Tango'n Blues [05:32]
05. La Zurda [02:36]
06. Anos Sin Ver La Luz [07:56]
07. La Mentirosa [06:07]
08. Lago Alumine [07:34]
09. Africa del Plata [07:00]
 
Лог создания рипа
Exact Audio Copy V1.0 beta 3 from 29. August 2011
EAC extraction logfile from 30. July 2013, 23:29
Hernan Lugano / La Zurda
Used drive : Optiarc DVD RW AD-5200A Adapter: 0 ID: 0
Read mode : Secure
Utilize accurate stream : Yes
Defeat audio cache : Yes
Make use of C2 pointers : No
Read offset correction : 48
Overread into Lead-In and Lead-Out : No
Fill up missing offset samples with silence : Yes
Delete leading and trailing silent blocks : No
Null samples used in CRC calculations : Yes
Used interface : Native Win32 interface for Win NT & 2000
Gap handling : Appended to previous track
Used output format : User Defined Encoder
Selected bitrate : 128 kBit/s
Quality : High
Add ID3 tag : No
Command line compressor : C:\Program Files\Exact Audio Copy\Flac\flac.exe
Additional command line options : -V -8 -T "Genre=%genre%" -T "Artist=%artist%" -T "Title=%title%" -T "Album=%albumtitle%" -T "Date=%year%" -T "Tracknumber=%tracknr%" -T "Comment=%comment%" %source%
TOC of the extracted CD
Track | Start | Length | Start sector | End sector
---------------------------------------------------------
1 | 0:00.00 | 7:42.47 | 0 | 34696
2 | 7:42.47 | 11:13.15 | 34697 | 85186
3 | 18:55.62 | 7:37.28 | 85187 | 119489
4 | 26:33.15 | 5:32.12 | 119490 | 144401
5 | 32:05.27 | 2:36.25 | 144402 | 156126
6 | 34:41.52 | 7:56.70 | 156127 | 191896
7 | 42:38.47 | 6:07.45 | 191897 | 219466
8 | 48:46.17 | 7:34.23 | 219467 | 253539
9 | 56:20.40 | 7:00.15 | 253540 | 285054
Track 1
Filename F:\1996.Hernan Lugano - La Zurda\01. A La Vanguardia Vieja.wav
Pre-gap length 0:00:02.00
Peak level 99.5 %
Extraction speed 2.2 X
Track quality 99.9 %
Test CRC 737879A9
Copy CRC 737879A9
Track not present in AccurateRip database
Copy OK
Track 2
Filename F:\1996.Hernan Lugano - La Zurda\02. Hamaca Paraguaya.wav
Pre-gap length 0:00:02.65
Peak level 99.9 %
Extraction speed 2.8 X
Track quality 99.9 %
Test CRC C4FFBDC9
Copy CRC C4FFBDC9
Track not present in AccurateRip database
Copy OK
Track 3
Filename F:\1996.Hernan Lugano - La Zurda\03. Hun.wav
Pre-gap length 0:00:02.67
Peak level 44.1 %
Extraction speed 3.2 X
Track quality 99.9 %
Test CRC FF2CA779
Copy CRC FF2CA779
Track not present in AccurateRip database
Copy OK
Track 4
Filename F:\1996.Hernan Lugano - La Zurda\04. Tango'n Blues.wav
Pre-gap length 0:00:01.05
Peak level 99.5 %
Extraction speed 3.5 X
Track quality 100.0 %
Test CRC C96B8337
Copy CRC C96B8337
Track not present in AccurateRip database
Copy OK
Track 5
Filename F:\1996.Hernan Lugano - La Zurda\05. La Zurda.wav
Pre-gap length 0:00:01.65
Peak level 61.8 %
Extraction speed 2.8 X
Track quality 99.9 %
Test CRC AE6E95B8
Copy CRC AE6E95B8
Track not present in AccurateRip database
Copy OK
Track 6
Filename F:\1996.Hernan Lugano - La Zurda\06. Anos Sin Ver La Luz.wav
Pre-gap length 0:00:02.72
Peak level 39.7 %
Extraction speed 3.8 X
Track quality 100.0 %
Test CRC D48F7E6C
Copy CRC D48F7E6C
Track not present in AccurateRip database
Copy OK
Track 7
Filename F:\1996.Hernan Lugano - La Zurda\07. La Mentirosa.wav
Peak level 98.2 %
Extraction speed 3.8 X
Track quality 100.0 %
Test CRC 08C04A90
Copy CRC 08C04A90
Track not present in AccurateRip database
Copy OK
Track 8
Filename F:\1996.Hernan Lugano - La Zurda\08. Lago Alumine.wav
Pre-gap length 0:00:02.40
Peak level 56.9 %
Extraction speed 3.8 X
Track quality 100.0 %
Test CRC E88E88A6
Copy CRC E88E88A6
Track not present in AccurateRip database
Copy OK
Track 9
Filename F:\1996.Hernan Lugano - La Zurda\09. Africa del Plata.wav
Pre-gap length 0:00:02.06
Peak level 99.4 %
Extraction speed 3.8 X
Track quality 100.0 %
Test CRC F0F2EFC4
Copy CRC F0F2EFC4
Track not present in AccurateRip database
Copy OK
None of the tracks are present in the AccurateRip database
No errors occurred
End of status report
==== Log checksum BB1E4550F6A82999454554B4DE42DD300EFE488D1E7667EB524B5675A25D7169 ====
 
Содержание индексной карты (.CUE)
REM GENRE Jazz
REM DATE 1996
REM DISCID 820ED809
REM COMMENT "ExactAudioCopy v1.0b3"
PERFORMER "Hernan Lugano"
TITLE "La Zurda"
FILE "01. A La Vanguardia Vieja.wav" WAVE
TRACK 01 AUDIO
TITLE "A La Vanguardia Vieja"
PERFORMER "Hernan Lugano"
ISRC DKMTA9600101
INDEX 01 00:00:00
TRACK 02 AUDIO
TITLE "Hamaca Paraguaya"
PERFORMER "Hernan Lugano"
ISRC DKMTA9600102
INDEX 00 07:39:57
FILE "02. Hamaca Paraguaya.wav" WAVE
INDEX 01 00:00:00
TRACK 03 AUDIO
TITLE "Hun"
PERFORMER "Hernan Lugano"
ISRC DKMTA9600103
INDEX 00 11:10:23
FILE "03. Hun.wav" WAVE
INDEX 01 00:00:00
TRACK 04 AUDIO
TITLE "Tango'n Blues"
PERFORMER "Hernan Lugano"
ISRC DKMTA9600104
INDEX 00 07:36:23
FILE "04. Tango'n Blues.wav" WAVE
INDEX 01 00:00:00
TRACK 05 AUDIO
TITLE "La Zurda"
PERFORMER "Hernan Lugano"
ISRC DKMTA9600105
INDEX 00 05:30:22
FILE "05. La Zurda.wav" WAVE
INDEX 01 00:00:00
TRACK 06 AUDIO
TITLE "Anos Sin Ver La Luz"
PERFORMER "Hernan Lugano"
ISRC DKMTA9600106
INDEX 00 02:33:28
FILE "06. Anos Sin Ver La Luz.wav" WAVE
INDEX 01 00:00:00
FILE "07. La Mentirosa.wav" WAVE
TRACK 07 AUDIO
TITLE "La Mentirosa"
PERFORMER "Hernan Lugano"
ISRC DKMTA9600107
INDEX 01 00:00:00
TRACK 08 AUDIO
TITLE "Lago Alumine"
PERFORMER "Hernan Lugano"
ISRC DKMTA9600108
INDEX 00 06:05:05
FILE "08. Lago Alumine.wav" WAVE
INDEX 01 00:00:00
TRACK 09 AUDIO
TITLE "Africa del Plata"
PERFORMER "Hernan Lugano"
ISRC DKMTA9600109
INDEX 00 07:32:17
FILE "09. Africa del Plata.wav" WAVE
INDEX 01 00:00:00
 
Состав
Hernan Lugano - piano
12:53
282
Нет комментариев. Ваш будет первым!