Поиск

(Latin, Big Band, Mambo, Rumba) Beny More - Y Hoy Como Ayer - 1992, FLAC (image+.cue), lossless

(Latin, Big Band, Mambo, Rumba) Beny More - Y Hoy Como Ayer - 1992, FLAC (image+.cue), lossless
Треклист:
♦ Beny More - Y Hoy Como Ayer ♦
Жанр: Latin, Big Band, Mambo, Rumba
Страна-производитель диска: USA
Год издания: 1992
Издатель (лейбл): RCA
Номер по каталогу: 3203-2-RL
Аудиокодек: FLAC (*.flac)
Тип рипа: image+.cue
Битрейт аудио: lossless
Продолжительность: 00:42:44
Источник (релизер): dreadbull
Наличие сканов в содержимом раздачи: да
Треклист:
01. Devuelveme El Coco [02:34]
02. Tu Me Sabras Comprender [03:00]
03. Nena Me Muero [02:56]
04. Y Hoy Como Ayer [03:22]
05. Oh Vida [03:31]
06. Soy Campesino [03:10]
07. Ya Llego La Hora [02:57]
08. Oye Una Cancion Para Ti [03:05]
09. Busco Tu Olvido [03:01]
10. Las Mulatas Del Cha Cha Cha [02:38]
11. Cuando Quieras Volver [02:43]
12. Manzanillo [03:25]
13. Vano Capricho [03:06]
14. En El Tiempo De La Colonia [03:10]
 
Лог создания рипа
Exact Audio Copy V1.0 beta 3 from 29. August 2011
EAC extraction logfile from 27. June 2013, 16:45
Beny Moré / Y Hoy Como Ayer
Used drive : ASUS DRW-22B2L Adapter: 0 ID: 0
Read mode : Secure
Utilize accurate stream : Yes
Defeat audio cache : Yes
Make use of C2 pointers : No
Read offset correction : 6
Overread into Lead-In and Lead-Out : No
Fill up missing offset samples with silence : Yes
Delete leading and trailing silent blocks : No
Null samples used in CRC calculations : Yes
Used interface : Native Win32 interface for Win NT & 2000
Used output format : User Defined Encoder
Selected bitrate : 128 kBit/s
Quality : High
Add ID3 tag : Yes
Command line compressor : C:\Program Files\FLAC\flac.exe
Additional command line options : -8 -V -T "ARTIST=%artist%" -T "TITLE=%title%" -T "ALBUM=%albumtitle%" -T "DATE=%year%" -T "TRACKNUMBER=%tracknr%" -T "GENRE=%genre%" -T "PERFORMER=%albuminterpret%" -T "COMPOSER=%composer%" %haslyrics%--tag-from-file=LYRICS="%lyricsfile%"%haslyrics% -T "ALBUMARTIST=%albumartist%" -T "DISCNUMBER=%cdnumber%" -T "TOTALDISCS=%totalcds%" -T "TOTALTRACKS=%numtracks%" -T "COMMENT=%comment%" %source% -o %dest%
TOC of the extracted CD
Track | Start | Length | Start sector | End sector
---------------------------------------------------------
1 | 0:00.00 | 2:34.73 | 0 | 11622
2 | 2:34.73 | 3:00.22 | 11623 | 25144
3 | 5:35.20 | 2:56.00 | 25145 | 38344
4 | 8:31.20 | 3:22.70 | 38345 | 53564
5 | 11:54.15 | 3:31.13 | 53565 | 69402
6 | 15:25.28 | 3:10.20 | 69403 | 83672
7 | 18:35.48 | 2:57.30 | 83673 | 96977
8 | 21:33.03 | 3:05.07 | 96978 | 110859
9 | 24:38.10 | 3:01.10 | 110860 | 124444
10 | 27:39.20 | 2:38.60 | 124445 | 136354
11 | 30:18.05 | 2:43.60 | 136355 | 148639
12 | 33:01.65 | 3:25.55 | 148640 | 164069
13 | 36:27.45 | 3:06.63 | 164070 | 178082
14 | 39:34.33 | 3:10.42 | 178083 | 192374
Range status and errors
Selected range
Filename F:\Donkey Files\Beny More - Y Hoy Como Ayer (1953-58, RCA; 1992) [eac-flac-scans] byDrBull\Y Hoy Como Ayer.wav
Peak level 91.4 %
Extraction speed 3.0 X
Range quality 99.9 %
Test CRC 9D57FC11
Copy CRC 9D57FC11
Copy OK
No errors occurred
AccurateRip summary
Track 1 not present in database
Track 2 not present in database
Track 3 not present in database
Track 4 not present in database
Track 5 not present in database
Track 6 not present in database
Track 7 not present in database
Track 8 not present in database
Track 9 not present in database
Track 10 not present in database
Track 11 not present in database
Track 12 not present in database
Track 13 not present in database
Track 14 not present in database
None of the tracks are present in the AccurateRip database
End of status report
==== Log checksum 6E33B8FE04E397B24B97C4905B7D094E75ED967A49C5687C8B20B1C5057B0DA0 ====
 
Содержание индексной карты (.CUE)
REM GENRE Latin
REM DATE 1958
REM DISCID C00A050E
REM COMMENT "ExactAudioCopy v1.0b3"
PERFORMER "Beny More"
TITLE "Y Hoy Como Ayer"
FILE "Y Hoy Como Ayer.flac" WAVE
TRACK 01 AUDIO
TITLE "Devuelveme El Coco"
PERFORMER "Beny More"
INDEX 01 00:00:00
TRACK 02 AUDIO
TITLE "Tu Me Sabras Comprender"
PERFORMER "Beny More"
INDEX 00 02:32:35
INDEX 01 02:34:73
TRACK 03 AUDIO
TITLE "Nena Me Muero"
PERFORMER "Beny More"
INDEX 00 05:32:58
INDEX 01 05:35:20
TRACK 04 AUDIO
TITLE "Y Hoy Como Ayer"
PERFORMER "Beny More"
INDEX 00 08:28:58
INDEX 01 08:31:20
TRACK 05 AUDIO
TITLE "Oh Vida"
PERFORMER "Beny More"
INDEX 00 11:51:53
INDEX 01 11:54:15
TRACK 06 AUDIO
TITLE "Soy Campesino"
PERFORMER "Beny More"
INDEX 00 15:22:65
INDEX 01 15:25:28
TRACK 07 AUDIO
TITLE "Ya Llego La Hora"
PERFORMER "Beny More"
INDEX 00 18:33:10
INDEX 01 18:35:48
TRACK 08 AUDIO
TITLE "Oye Una Cancion Para Ti"
PERFORMER "Beny More"
INDEX 00 21:30:40
INDEX 01 21:33:03
TRACK 09 AUDIO
TITLE "Busco Tu Olvido"
PERFORMER "Beny More"
INDEX 00 24:35:48
INDEX 01 24:38:10
TRACK 10 AUDIO
TITLE "Las Mulatas Del Cha Cha Cha"
PERFORMER "Beny More"
INDEX 00 27:36:58
INDEX 01 27:39:20
TRACK 11 AUDIO
TITLE "Cuando Quieras Volver"
PERFORMER "Beny More"
INDEX 00 30:15:43
INDEX 01 30:18:05
TRACK 12 AUDIO
TITLE "Manzanillo"
PERFORMER "Beny More"
INDEX 00 32:59:28
INDEX 01 33:01:65
TRACK 13 AUDIO
TITLE "Vano Capricho"
PERFORMER "Beny More"
INDEX 00 36:25:08
INDEX 01 36:27:45
TRACK 14 AUDIO
TITLE "En El Tiempo De La Colonia"
PERFORMER "Beny More"
INDEX 00 39:31:70
INDEX 01 39:34:33
 
Состав
Beny Moré - lead vocals;
Pedro "Peruchín" Justiz - piano, arranger (#1,8,12);
Eduardo "Cabrerito" Cabrera - piano, arranger (#2-5,7,9,10,14);
Generoso "El Tojo" Jiménez - trombone, arranger (#13);
Alejandro "El Negro" Vivar - trumpet;
Alfredo "Chocolate" Armenteros - trumpet;
Domingo Corbacho - trumpet;
Dagoberto "Rabanito" Jiménez - trumpet;
Emilio Peñalver - tenor sax;
Santiago Peñalver - alto sax;
Rolando Laserie - timbales;
Fernando Alvarez, Enrique Benítez - coro;
and others.
12:54
318
Нет комментариев. Ваш будет первым!