Поиск

(World Fusion, Brazilian Jazz, Cool) L.A.4 (Laurindo Almeida, Ray Brown, Jeff Hamilton, Bud Shank) - Watch What Happens - 1990, APE (tracks+.cue), lossless

(World Fusion, Brazilian Jazz, Cool) L.A.4 (Laurindo Almeida, Ray Brown, Jeff Hamilton, Bud Shank) - Watch What Happens - 1990, APE (tracks+.cue), lossless
Треклист:
♦ L.A.4 (Laurindo Almeida, Ray Brown, Jeff Hamilton, Bud Shank) - Watch What Happens ♦
Жанр: World Fusion, Brazilian Jazz, Cool
Страна-производитель диска: Russia
Год издания: 1990
Издатель (лейбл): Concord Jazz
Номер по каталогу: CCD-4063
Аудиокодек: APE (*.ape)
Тип рипа: tracks+.cue
Битрейт аудио: lossless
Продолжительность: 00:41:27
Источник (релизер): Рип с диска.
Наличие сканов в содержимом раздачи: да
Треклист:
01. Watch What Happens [05:24]
02. Summertime [05:14]
03. Mona Lisa [04:55]
04. Williwaw [05:26]
05. Land of Make Believe [06:55]
06. Nuages [05:48]
07. Misty [07:42]
 
Лог создания рипа
Exact Audio Copy V1.0 beta 3 from 29. August 2011
EAC extraction logfile from 3. August 2013, 20:52
L.A. 4 / Watch What Happens
Used drive : Optiarc DVD RW AD-5200A Adapter: 0 ID: 0
Read mode : Secure
Utilize accurate stream : Yes
Defeat audio cache : Yes
Make use of C2 pointers : No
Read offset correction : 48
Overread into Lead-In and Lead-Out : No
Fill up missing offset samples with silence : Yes
Delete leading and trailing silent blocks : No
Null samples used in CRC calculations : Yes
Used interface : Native Win32 interface for Win NT & 2000
Gap handling : Appended to previous track
Used output format : User Defined Encoder
Selected bitrate : 128 kBit/s
Quality : High
Add ID3 tag : No
Command line compressor : F:\Program Files\Monkey's Audio\wapet.exe
Additional command line options : %dest% -t "Genre=%genre%" -t "Artist=%artist%" -t "Title=%title%" -t "Album=%albumtitle%" -t "Year=%year%" -t "Track=%tracknr%" -t "Comment=%comment%" mac.exe %source% %dest% -c3000
TOC of the extracted CD
Track | Start | Length | Start sector | End sector
---------------------------------------------------------
1 | 0:00.00 | 5:24.45 | 0 | 24344
2 | 5:24.45 | 5:14.35 | 24345 | 47929
3 | 10:39.05 | 4:55.27 | 47930 | 70081
4 | 15:34.32 | 5:26.73 | 70082 | 94604
5 | 21:01.30 | 6:55.07 | 94605 | 125736
6 | 27:56.37 | 5:48.15 | 125737 | 151851
7 | 33:44.52 | 7:42.50 | 151852 | 186551
Track 1
Filename F:\1990.L.A.4 - Watch What Happens\01. Watch What Happens.wav
Pre-gap length 0:00:02.00
Peak level 74.8 %
Extraction speed 2.4 X
Track quality 100.0 %
Test CRC A163F19D
Copy CRC A163F19D
Cannot be verified as accurate (confidence 4) [2459A564], AccurateRip returned [4F666206] (AR v2)
Copy OK
Track 2
Filename F:\1990.L.A.4 - Watch What Happens\02. Summertime.wav
Pre-gap length 0:00:06.68
Peak level 76.0 %
Extraction speed 2.7 X
Track quality 100.0 %
Test CRC E2655B27
Copy CRC E2655B27
Cannot be verified as accurate (confidence 4) [29ECF936], AccurateRip returned [9FE60710] (AR v2)
Copy OK
Track 3
Filename F:\1990.L.A.4 - Watch What Happens\03. Mona Lisa.wav
Pre-gap length 0:00:04.68
Peak level 33.9 %
Extraction speed 2.8 X
Track quality 100.0 %
Test CRC 678202F5
Copy CRC 678202F5
Cannot be verified as accurate (confidence 4) [BFC9ABFB], AccurateRip returned [7474CEEA] (AR v2)
Copy OK
Track 4
Filename F:\1990.L.A.4 - Watch What Happens\04. Williwaw.wav
Pre-gap length 0:00:04.52
Peak level 100.0 %
Extraction speed 2.9 X
Track quality 99.9 %
Test CRC 87265B35
Copy CRC 87265B35
Cannot be verified as accurate (confidence 4) [5DF9FFA7], AccurateRip returned [3D5D71D0] (AR v2)
Copy OK
Track 5
Filename F:\1990.L.A.4 - Watch What Happens\05. Land of Make Believe.wav
Pre-gap length 0:00:03.08
Peak level 100.0 %
Extraction speed 3.6 X
Track quality 100.0 %
Test CRC 584CFAD1
Copy CRC 584CFAD1
Cannot be verified as accurate (confidence 4) [5CD3E1B7], AccurateRip returned [9DB2853E] (AR v2)
Copy OK
Track 6
Filename F:\1990.L.A.4 - Watch What Happens\06. Nuages.wav
Pre-gap length 0:00:05.15
Peak level 74.9 %
Extraction speed 3.6 X
Track quality 100.0 %
Test CRC 1C68E953
Copy CRC 1C68E953
Cannot be verified as accurate (confidence 4) [0AA15B67], AccurateRip returned [910F1849] (AR v2)
Copy OK
Track 7
Filename F:\1990.L.A.4 - Watch What Happens\07. Misty.wav
Pre-gap length 0:00:03.67
Peak level 87.2 %
Extraction speed 3.9 X
Track quality 100.0 %
Test CRC C158CC19
Copy CRC C158CC19
Cannot be verified as accurate (confidence 4) [95BE1E91], AccurateRip returned [CA9DBA80] (AR v2)
Copy OK
No tracks could be verified as accurate
You may have a different pressing from the one(s) in the database
No errors occurred
End of status report
==== Log checksum 99EAE2D4B0E28D076C37D669920ECD6DAB243CBB789DDC2B2797DA1F50B89244 ====
 
Содержание индексной карты (.CUE)
REM GENRE Jazz
REM DATE 1978
REM DISCID 5609B707
REM COMMENT "ExactAudioCopy v1.0b3"
PERFORMER "L.A. 4"
TITLE "Watch What Happens"
FILE "01. Watch What Happens.wav" WAVE
TRACK 01 AUDIO
TITLE "Watch What Happens"
PERFORMER "L.A. 4"
INDEX 01 00:00:00
TRACK 02 AUDIO
TITLE "Summertime"
PERFORMER "L.A. 4"
INDEX 00 05:17:52
FILE "02. Summertime.wav" WAVE
INDEX 01 00:00:00
TRACK 03 AUDIO
TITLE "Mona Lisa"
PERFORMER "L.A. 4"
INDEX 00 05:09:42
FILE "03. Mona Lisa.wav" WAVE
INDEX 01 00:00:00
TRACK 04 AUDIO
TITLE "Williwaw"
PERFORMER "L.A. 4"
INDEX 00 04:50:50
FILE "04. Williwaw.wav" WAVE
INDEX 01 00:00:00
TRACK 05 AUDIO
TITLE "Land of Make Believe"
PERFORMER "L.A. 4"
INDEX 00 05:23:65
FILE "05. Land of Make Believe.wav" WAVE
INDEX 01 00:00:00
TRACK 06 AUDIO
TITLE "Nuages"
PERFORMER "L.A. 4"
INDEX 00 06:49:67
FILE "06. Nuages.wav" WAVE
INDEX 01 00:00:00
TRACK 07 AUDIO
TITLE "Misty"
PERFORMER "L.A. 4"
INDEX 00 05:44:23
FILE "07. Misty.wav" WAVE
INDEX 01 00:00:00
 
Состав
Personnel: Bud Shank (alto saxophone, flute), Laurindo Almeido (guitar), Ray Brown (bass), Jeff Hamilton (drums).
11:55
488
Нет комментариев. Ваш будет первым!