Поиск

(Latin Jazz) Paquito d'Rivera, Pepe Rivero - Clazz Continental Latin Jazz Live at Barcelona - 2011, FLAC (tracks+.cue), lossless

(Latin Jazz) Paquito d'Rivera, Pepe Rivero - Clazz Continental Latin Jazz Live at Barcelona - 2011, FLAC (tracks+.cue), lossless
Треклист:
Paquito d'Rivera, Pepe Rivero / Clazz Continental Latin Jazz Live at Barcelona
Жанр: Latin Jazz
Страна-производитель диска: Spain
Год издания диска: 2011
Издатель (лейбл): Warner Music Spain
Номер по каталогу: 5249881042
Страна: Cuba, Spain
Аудиокодек: FLAC (*.flac)
Тип рипа: tracks+.cue
Битрейт аудио: lossless, 872 Kbps, VBR
Продолжительность: 1:09:38
Источник (релизер): losslessworld
Наличие сканов в содержимом раздачи: да
Треклист:
01. Chucho
02. Nocturno en la celda
03. Libertango
04. El vals de la media hora
05. Andalucía
06. Pa' bebo
07. Oblivion
08. To Brenda with love
 
Лог создания рипа
Exact Audio Copy V1.0 beta 2 from 29. April 2011
EAC extraction logfile from 14. January 2012, 21:10
Paquito d'Rivera & The Madrid Big Band, Pepe Rivero & Friends / Clazz Continental Latin Jazz Live at Barcelona 2011 Vol I
Used drive : PLEXTOR DVDR PX-L890SA Adapter: 2 ID: 1
Read mode : Secure
Utilize accurate stream : Yes
Defeat audio cache : Yes
Make use of C2 pointers : No
Read offset correction : 6
Overread into Lead-In and Lead-Out : No
Fill up missing offset samples with silence : Yes
Delete leading and trailing silent blocks : No
Null samples used in CRC calculations : Yes
Used interface : Native Win32 interface for Win NT & 2000
Gap handling : Appended to previous track
Used output format : User Defined Encoder
Selected bitrate : 256 kBit/s
Quality : High
Add ID3 tag : No
Command line compressor : C:\Program Files (x86)\Exact Audio Copy\FLAC\FLAC.EXE
Additional command line options : -8 -V -T "ARTIST=%artist%" -T "TITLE=%title%" -T "ALBUM=%albumtitle%" -T "DATE=%year%" -T "TRACKNUMBER=%tracknr%" -T "TOTALTRACKS=%numtracks%" -T "GENRE=%genre%" -T "ALBUMARTIST=%albumartist%" -T "ALBUM ARTIST=%albumartist%
TOC of the extracted CD
Track | Start | Length | Start sector | End sector
---------------------------------------------------------
1 | 0:00.00 | 6:48.00 | 0 | 30599
2 | 6:48.00 | 8:10.00 | 30600 | 67349
3 | 14:58.00 | 9:46.00 | 67350 | 111299
4 | 24:44.00 | 6:36.00 | 111300 | 140999
5 | 31:20.00 | 12:06.00 | 141000 | 195449
6 | 43:26.00 | 10:00.00 | 195450 | 240449
7 | 53:26.00 | 6:07.00 | 240450 | 267974
8 | 59:33.00 | 10:05.00 | 267975 | 313349
Track 1
Filename F:\Flac Rips\01 - Chucho.wav
Pre-gap length 0:00:02.00
Peak level 95.4 %
Extraction speed 3.5 X
Track quality 99.9 %
Test CRC 0D6E5BBC
Copy CRC 0D6E5BBC
Track not present in AccurateRip database
Copy OK
Track 2
Filename F:\Flac Rips\02 - Nocturno En La Celda.wav
Peak level 95.2 %
Extraction speed 4.2 X
Track quality 99.9 %
Test CRC 0AB9B15C
Copy CRC 0AB9B15C
Track not present in AccurateRip database
Copy OK
Track 3
Filename F:\Flac Rips\03 - Libertango.wav
Peak level 95.7 %
Extraction speed 5.5 X
Track quality 100.0 %
Test CRC 3A8A0BCB
Copy CRC 3A8A0BCB
Track not present in AccurateRip database
Copy OK
Track 4
Filename F:\Flac Rips\04 - El Vals De La Media Hora.wav
Peak level 95.2 %
Extraction speed 5.9 X
Track quality 100.0 %
Test CRC 831B0095
Copy CRC 831B0095
Track not present in AccurateRip database
Copy OK
Track 5
Filename F:\Flac Rips\05 - Andalucia.wav
Peak level 95.5 %
Extraction speed 6.8 X
Track quality 100.0 %
Test CRC E62A496C
Copy CRC E62A496C
Track not present in AccurateRip database
Copy OK
Track 6
Filename F:\Flac Rips\06 - Pabebo.wav
Peak level 95.3 %
Extraction speed 7.4 X
Track quality 100.0 %
Test CRC 9F679E2F
Copy CRC 9F679E2F
Track not present in AccurateRip database
Copy OK
Track 7
Filename F:\Flac Rips\07 - Oblivion.wav
Peak level 95.3 %
Extraction speed 7.4 X
Track quality 100.0 %
Test CRC DAFE2DF7
Copy CRC DAFE2DF7
Track not present in AccurateRip database
Copy OK
Track 8
Filename F:\Flac Rips\08 - To Brenda With Love.wav
Peak level 95.4 %
Extraction speed 8.2 X
Track quality 100.0 %
Test CRC 39D71EC7
Copy CRC 39D71EC7
Track not present in AccurateRip database
Copy OK
None of the tracks are present in the AccurateRip database
No errors occurred
End of status report
==== Log checksum 8A246F449E526A94DB7361A3A6979CACDDD95F6AED23F70227ADCD4BAA8CF60E ====
 
Содержание индексной карты (.CUE)
REM GENRE "Latin Jazz"
REM DATE 2011
REM DISCID 67105208
REM COMMENT "ExactAudioCopy v1.0b2"
PERFORMER "Paquito d'Rivera & The Madrid Big Band, Pepe Rivero & Friends"
TITLE "Clazz Continental Latin Jazz Live at Barcelona 2011 Vol I"
FILE "01 - Chucho.wav" WAVE
TRACK 01 AUDIO
TITLE "Chucho"
PERFORMER "Paquito d'Rivera & The Madrid Big Band, Pepe Rivero & Friends"
FLAGS DCP
INDEX 01 00:00:00
FILE "02 - Nocturno En La Celda.wav" WAVE
TRACK 02 AUDIO
TITLE "Nocturno En La Celda"
PERFORMER "Paquito d'Rivera & The Madrid Big Band, Pepe Rivero & Friends"
FLAGS DCP
INDEX 01 00:00:00
FILE "03 - Libertango.wav" WAVE
TRACK 03 AUDIO
TITLE "Libertango"
PERFORMER "Paquito d'Rivera & The Madrid Big Band, Pepe Rivero & Friends"
FLAGS DCP
INDEX 01 00:00:00
FILE "04 - El Vals De La Media Hora.wav" WAVE
TRACK 04 AUDIO
TITLE "El Vals De La Media Hora"
PERFORMER "Paquito d'Rivera & The Madrid Big Band, Pepe Rivero & Friends"
FLAGS DCP
INDEX 01 00:00:00
FILE "05 - Andalucia.wav" WAVE
TRACK 05 AUDIO
TITLE "Andalucia"
PERFORMER "Paquito d'Rivera & The Madrid Big Band, Pepe Rivero & Friends"
FLAGS DCP
INDEX 01 00:00:00
FILE "06 - Pabebo.wav" WAVE
TRACK 06 AUDIO
TITLE "Pabebo"
PERFORMER "Paquito d'Rivera & The Madrid Big Band, Pepe Rivero & Friends"
FLAGS DCP
INDEX 01 00:00:00
FILE "07 - Oblivion.wav" WAVE
TRACK 07 AUDIO
TITLE "Oblivion"
PERFORMER "Paquito d'Rivera & The Madrid Big Band, Pepe Rivero & Friends"
FLAGS DCP
INDEX 01 00:00:00
FILE "08 - To Brenda With Love.wav" WAVE
TRACK 08 AUDIO
TITLE "To Brenda With Love"
PERFORMER "Paquito d'Rivera & The Madrid Big Band, Pepe Rivero & Friends"
FLAGS DCP
INDEX 01 00:00:00
 
Лог проверки качества
Started at: воскресенье, 19. 02. 2012. - 22:06.08
8 files found
1 -===- E:\Paquito d'Rivera, Pepe Rivero - Clazz Continental Latin Jazz Live at Barcelona 2011 Vol I (2011) [FLAC] {Warner Music Spain 5249881042 CD+DVD5 PAL}\CD\01 - Chucho.flac
Extracted successfully
Conclusion: this track is CDDA with probability 100%
Tempfile successfully deleted.
2 -===- E:\Paquito d'Rivera, Pepe Rivero - Clazz Continental Latin Jazz Live at Barcelona 2011 Vol I (2011) [FLAC] {Warner Music Spain 5249881042 CD+DVD5 PAL}\CD\02 - Nocturno En La Celda.flac
Extracted successfully
Conclusion: this track is CDDA with probability 100%
Tempfile successfully deleted.
3 -===- E:\Paquito d'Rivera, Pepe Rivero - Clazz Continental Latin Jazz Live at Barcelona 2011 Vol I (2011) [FLAC] {Warner Music Spain 5249881042 CD+DVD5 PAL}\CD\03 - Libertango.flac
Extracted successfully
Conclusion: this track is CDDA with probability 100%
Tempfile successfully deleted.
4 -===- E:\Paquito d'Rivera, Pepe Rivero - Clazz Continental Latin Jazz Live at Barcelona 2011 Vol I (2011) [FLAC] {Warner Music Spain 5249881042 CD+DVD5 PAL}\CD\04 - El Vals De La Media Hora.flac
Extracted successfully
Conclusion: this track is CDDA with probability 100%
Tempfile successfully deleted.
5 -===- E:\Paquito d'Rivera, Pepe Rivero - Clazz Continental Latin Jazz Live at Barcelona 2011 Vol I (2011) [FLAC] {Warner Music Spain 5249881042 CD+DVD5 PAL}\CD\05 - Andalucia.flac
Extracted successfully
Conclusion: this track is CDDA with probability 100%
Tempfile successfully deleted.
6 -===- E:\Paquito d'Rivera, Pepe Rivero - Clazz Continental Latin Jazz Live at Barcelona 2011 Vol I (2011) [FLAC] {Warner Music Spain 5249881042 CD+DVD5 PAL}\CD\06 - Pabebo.flac
Extracted successfully
Conclusion: this track is CDDA with probability 100%
Tempfile successfully deleted.
7 -===- E:\Paquito d'Rivera, Pepe Rivero - Clazz Continental Latin Jazz Live at Barcelona 2011 Vol I (2011) [FLAC] {Warner Music Spain 5249881042 CD+DVD5 PAL}\CD\07 - Oblivion.flac
Extracted successfully
Conclusion: this track is CDDA with probability 100%
Tempfile successfully deleted.
8 -===- E:\Paquito d'Rivera, Pepe Rivero - Clazz Continental Latin Jazz Live at Barcelona 2011 Vol I (2011) [FLAC] {Warner Music Spain 5249881042 CD+DVD5 PAL}\CD\08 - To Brenda With Love.flac
Extracted successfully
Conclusion: this track is CDDA with probability 100%
Tempfile successfully deleted.
Finished at: воскресенье, 19. 02. 2012. - 22:09.20 (operation time: 0:03.12)
Доп. информация: CD из двухдискового издания (СD+DVD). выпущенного Warner Music Spain
Запись в Teatre Arteria Paral·lel, Barcelona, 21 февраля 2011
Бонусный DVD находится здесь http://rutracker.org/forum/viewtopic.php?t=3950828
 
What's Clazz?
Clazz Continental Latin Jazz is a concert series featuring top names of the Latin Jazz scene which will tour Europe to share the quality of these artists and their music.
Spain is currently a hotbed of high-class musical talent, with a strong and growing public demand for Latin Jazz in music bars and concert halls.
A new generation of musicians, along with established players, are raising the status of this genre thanks to their virtuoso performances; they are making their way into many venues which have been reserved for classical and trad jazz until recently.
The increasing popularity of Latin Jazz may well be due to its Afro-Cuban rhythms which we all relate to so easily, compared to other Jazz styles, and which are accessible to listeners of all tastes, ages and backgrounds.
The Clazz team have a total belief in Latin Jazz and a 100% commitment to disseminating it, in Spain and in Europe; we want to share the charm and unique musical qualities of this very special musical style.
We are proud to present the Continental Latin Jazz Festival, a special concert series which truly has something for everyone.
02:41
278
Нет комментариев. Ваш будет первым!