Поиск

2012 Ulf Wakenius, Lars Danielsson, Vincent Peirani - Vagabond {ACT Music ACT 9523-2} [CD]

2012 Ulf Wakenius, Lars Danielsson, Vincent Peirani - Vagabond {ACT Music ACT 9523-2} [CD]
Дата записи диска:
9 августа - 11 августа 2011
Место записи:
Nilento Studio, Gothenburg, Sweden.
Дата издания диска:
27 января 2012
Издатель (лейбл):
Треклист:
01. Vagabond (Ulf Wakenius / Eric Wakenius) (05:20)
02. Message In A Bottle (Gordon Sumner) (06:16)
03. Bretagne (Ulf Wakenius) (05:01)
04. Psalmen (Lars Danielsson) (04:36)
05. Breakfast In Baghdad (Ulf Wakenius) (06:35)
06. Song For Japan (Ulf Wakenius) (03:21)
07. Birds And Bees (Attila Zoller) (04:31)
08. Praying (Lars Danielsson) (03:54)
09. Chorinho (Lyle Mays) (05:07)
10. Witchi-Tai-To (Jim Pepper) (05:24)
11. Encore (Keith Jarrett) (02:54)
Состав:
  • Ulf Wakenius — acoustic guitars, oud, chant
  • Vincent Peirani — accordion, accordina, voice
  • Lars Danielsson — bass, cello
  • Eric Wakenius — acoustic steel string guitar
  • Michael Dahlvid — darbuka, cajon
  • Very special guests on “Message In A Bottle”:
  • Youn Sun Nah — vocals
  • Nguyên Lê — electric guitar
  • Engineer — Lars Nilsson
Доп. инфо:

Страна-производитель диска: Germany
Год издания диска: 2012
Издатель (лейбл): ACT Music
Номер по каталогу: ACT 9523-2
Аудиокодек: FLAC (*.flac)
Тип рипа: tracks+.cue
Битрейт аудио: lossless
Продолжительность: 00:53:05
Наличие сканов в содержимом раздачи: да

mixed and mastered on September 27, 2011

Лог создания рипа
Exact Audio Copy V0.99 prebeta 4 from 23. January 2008
EAC extraction logfile from 19. February 2012, 16:34
Ulf Wakenius / Vagabond
Used drive  : Optiarc DVD RW AD-7260S   Adapter: 2  ID: 0
Read mode               : Secure
Utilize accurate stream : Yes
Defeat audio cache      : Yes
Make use of C2 pointers : No
Read offset correction                      : 48
Overread into Lead-In and Lead-Out          : No
Fill up missing offset samples with silence : Yes
Delete leading and trailing silent blocks   : No
Null samples used in CRC calculations       : Yes
Used interface                              : Installed external ASPI interface
Gap handling                                : Appended to previous track
Used output format              : User Defined Encoder
Selected bitrate                : 128 kBit/s
Quality                         : High
Add ID3 tag                     : No
Command line compressor         : D:\Program Files\Exact Audio Copy\Flac\flac.exe
Additional command line options : -8 -V -T "ARTIST=%a" -T "TITLE=%t" -T "ALBUM=%g" -T "DATE=%y" -T "TRACKNUMBER=%n" -T "GENRE=%m" -T "COMMENT=EAC FLAC -8" %s
TOC of the extracted CD
     Track |   Start  |  Length  | Start sector | End sector
    ---------------------------------------------------------
        1  |  0:00.00 |  5:18.40 |         0    |    23889
        2  |  5:18.40 |  6:16.18 |     23890    |    52107
        3  | 11:34.58 |  5:01.20 |     52108    |    74702
        4  | 16:36.03 |  4:36.31 |     74703    |    95433
        5  | 21:12.34 |  6:35.66 |     95434    |   125124
        6  | 27:48.25 |  3:21.69 |    125125    |   140268
        7  | 31:10.19 |  4:31.10 |    140269    |   160603
        8  | 35:41.29 |  3:54.38 |    160604    |   178191
        9  | 39:35.67 |  5:07.68 |    178192    |   201284
       10  | 44:43.60 |  5:24.73 |    201285    |   225657
       11  | 50:08.58 |  2:54.34 |    225658    |   238741
Track  1
     Filename L:\rip by readab\Ulf Wakenius - Vagabond (2012)\01 - Vagabond.wav
     Pre-gap length  0:00:02.00
     Peak level 93.9 %
     Track quality 100.0 %
     Test CRC 2B7F997B
     Copy CRC 2B7F997B
     Accurately ripped (confidence 1)  [26FEE04C]
     Copy OK
Track  2
     Filename L:\rip by readab\Ulf Wakenius - Vagabond (2012)\02 - Message in a Bottle.wav
     Peak level 93.2 %
     Track quality 99.9 %
     Test CRC 5B615AD6
     Copy CRC 5B615AD6
     Accurately ripped (confidence 1)  [E61FE174]
     Copy OK
Track  3
     Filename L:\rip by readab\Ulf Wakenius - Vagabond (2012)\03 - Bretagne.wav
     Peak level 94.5 %
     Track quality 100.0 %
     Test CRC 8105E838
     Copy CRC 8105E838
     Accurately ripped (confidence 1)  [357B10CB]
     Copy OK
Track  4
     Filename L:\rip by readab\Ulf Wakenius - Vagabond (2012)\04 - Psalmen.wav
     Peak level 93.3 %
     Track quality 100.0 %
     Test CRC B7A04D25
     Copy CRC B7A04D25
     Accurately ripped (confidence 1)  [6A31F245]
     Copy OK
Track  5
     Filename L:\rip by readab\Ulf Wakenius - Vagabond (2012)\05 - Breakfast in Baghdad.wav
     Peak level 99.1 %
     Track quality 100.0 %
     Test CRC 01F5EAD5
     Copy CRC 01F5EAD5
     Accurately ripped (confidence 1)  [E253D380]
     Copy OK
Track  6
     Filename L:\rip by readab\Ulf Wakenius - Vagabond (2012)\06 - Song for Japan.wav
     Peak level 93.5 %
     Track quality 99.9 %
     Test CRC 8C79BCC8
     Copy CRC 8C79BCC8
     Accurately ripped (confidence 1)  [9EC3D4B4]
     Copy OK
Track  7
     Filename L:\rip by readab\Ulf Wakenius - Vagabond (2012)\07 - Birds and Bees.wav
     Peak level 95.5 %
     Track quality 100.0 %
     Test CRC 88B1B17C
     Copy CRC 88B1B17C
     Accurately ripped (confidence 1)  [1715E32A]
     Copy OK
Track  8
     Filename L:\rip by readab\Ulf Wakenius - Vagabond (2012)\08 - Praying.wav
     Peak level 93.7 %
     Track quality 100.0 %
     Test CRC 26C2AE3B
     Copy CRC 26C2AE3B
     Accurately ripped (confidence 1)  [00A3BC87]
     Copy OK
Track  9
     Filename L:\rip by readab\Ulf Wakenius - Vagabond (2012)\09 - Chorinho.wav
     Peak level 94.6 %
     Track quality 100.0 %
     Test CRC 99F8A8ED
     Copy CRC 99F8A8ED
     Accurately ripped (confidence 1)  [B0FE2420]
     Copy OK
Track 10
     Filename L:\rip by readab\Ulf Wakenius - Vagabond (2012)\10 - Witchi-Tai-To.wav
     Peak level 96.6 %
     Track quality 100.0 %
     Test CRC A698D32C
     Copy CRC A698D32C
     Accurately ripped (confidence 1)  [7A5625C2]
     Copy OK
Track 11
     Filename L:\rip by readab\Ulf Wakenius - Vagabond (2012)\11 - Encore.wav
     Peak level 93.2 %
     Track quality 100.0 %
     Test CRC A1A218D2
     Copy CRC A1A218D2
     Accurately ripped (confidence 1)  [5F644706]
     Copy OK
All tracks accurately ripped
No errors occurred
End of status report
Содержание индексной карты (.CUE)
REM GENRE Jazz
REM DATE 2012
REM DISCID 9A0C6F0B
REM COMMENT "ExactAudioCopy v0.99pb4"
PERFORMER "Ulf Wakenius"
TITLE "Vagabond"
FILE "01 - Vagabond.wav" WAVE
  TRACK 01 AUDIO
    TITLE "Vagabond"
    PERFORMER "Ulf Wakenius"
    INDEX 01 00:00:00
FILE "02 - Message in a Bottle.wav" WAVE
  TRACK 02 AUDIO
    TITLE "Message in a Bottle"
    PERFORMER "Ulf Wakenius"
    INDEX 01 00:00:00
FILE "03 - Bretagne.wav" WAVE
  TRACK 03 AUDIO
    TITLE "Bretagne"
    PERFORMER "Ulf Wakenius"
    INDEX 01 00:00:00
FILE "04 - Psalmen.wav" WAVE
  TRACK 04 AUDIO
    TITLE "Psalmen"
    PERFORMER "Ulf Wakenius"
    INDEX 01 00:00:00
FILE "05 - Breakfast in Baghdad.wav" WAVE
  TRACK 05 AUDIO
    TITLE "Breakfast in Baghdad"
    PERFORMER "Ulf Wakenius"
    INDEX 01 00:00:00
FILE "06 - Song for Japan.wav" WAVE
  TRACK 06 AUDIO
    TITLE "Song for Japan"
    PERFORMER "Ulf Wakenius"
    INDEX 01 00:00:00
FILE "07 - Birds and Bees.wav" WAVE
  TRACK 07 AUDIO
    TITLE "Birds and Bees"
    PERFORMER "Ulf Wakenius"
    INDEX 01 00:00:00
FILE "08 - Praying.wav" WAVE
  TRACK 08 AUDIO
    TITLE "Praying"
    PERFORMER "Ulf Wakenius"
    INDEX 01 00:00:00
FILE "09 - Chorinho.wav" WAVE
  TRACK 09 AUDIO
    TITLE "Chorinho"
    PERFORMER "Ulf Wakenius"
    INDEX 01 00:00:00
FILE "10 - Witchi-Tai-To.wav" WAVE
  TRACK 10 AUDIO
    TITLE "Witchi-Tai-To"
    PERFORMER "Ulf Wakenius"
    INDEX 01 00:00:00
FILE "11 - Encore.wav" WAVE
  TRACK 11 AUDIO
    TITLE "Encore"
    PERFORMER "Ulf Wakenius"
    INDEX 01 00:00:00
01:40
463
Нет комментариев. Ваш будет первым!