Поиск

(Latin Jazz) Yosvany Terry Cabrera - Metamorphosis - 2005, FLAC (image+.cue), lossless

Треклист:
Yosvany Terry Cabrera - Metamorphosis
Жанр: Latin Jazz
Страна-производитель диска: USA
Год издания диска: 2005
Издатель (лейбл): Ewe / Kindred Rhythm
Номер по каталогу: KRM 1117
Страна: New York, US
Аудиокодек: FLAC (*.flac)
Тип рипа: image+.cue
Битрейт аудио: lossless
Продолжительность: 01:01:55
Источник (релизер): dreadbull
Наличие сканов в содержимом раздачи: да

01. Okonkolo Concertante [07:12]
02. El Burlon ( The Joker) [05:51]
03. Journey of Awareness [09:44]
04. This Is It [09:07]
05. The Crying [07:47]
06. Subversive [09:25]
07. Transito a Full (Traffic Jam) [07:27]
08. Rampa Abajo [05:19]
Recorded at Benette Studio, June 21-25, 2004
 
Лог создания рипа
Exact Audio Copy V1.0 beta 3 from 29. August 2011
EAC extraction logfile from 14. February 2012, 21:04
Yosvany Terry Cabrera / Metamorphosis
Used drive : ASUS DRW-22B2L Adapter: 0 ID: 1
Read mode : Secure
Utilize accurate stream : Yes
Defeat audio cache : Yes
Make use of C2 pointers : No
Read offset correction : 6
Overread into Lead-In and Lead-Out : No
Fill up missing offset samples with silence : Yes
Delete leading and trailing silent blocks : No
Null samples used in CRC calculations : Yes
Used interface : Native Win32 interface for Win NT & 2000
Used output format : User Defined Encoder
Selected bitrate : 128 kBit/s
Quality : High
Add ID3 tag : Yes
Command line compressor : C:\Program Files\FLAC\flac.exe
Additional command line options : -8 -V -T "ARTIST=%artist%" -T "TITLE=%title%" -T "ALBUM=%albumtitle%" -T "DATE=%year%" -T "TRACKNUMBER=%tracknr%" -T "GENRE=%genre%" -T "PERFORMER=%albuminterpret%" -T "COMPOSER=%composer%" %haslyrics%--tag-from-file=LYRICS="%lyricsfile%"%haslyrics% -T "ALBUMARTIST=%albumartist%" -T "DISCNUMBER=%cdnumber%" -T "TOTALDISCS=%totalcds%" -T "TOTALTRACKS=%numtracks%" -T "COMMENT=%comment%" %source% -o %dest%
TOC of the extracted CD
Track | Start | Length | Start sector | End sector
---------------------------------------------------------
1 | 0:00.00 | 7:12.40 | 0 | 32439
2 | 7:12.40 | 5:51.30 | 32440 | 58794
3 | 13:03.70 | 9:44.05 | 58795 | 102599
4 | 22:48.00 | 9:07.57 | 102600 | 143681
5 | 31:55.57 | 7:47.52 | 143682 | 178758
6 | 39:43.34 | 9:25.56 | 178759 | 221189
7 | 49:09.15 | 7:27.10 | 221190 | 254724
8 | 56:36.25 | 5:19.20 | 254725 | 278669
Range status and errors
Selected range
Filename D:\Donkey Files\Yosvany Terry Cabrera - Metamorphosis (2005, Kindred Rhythm) [eac-ape-scans] byDrBull\Yosvany Terry Cabrera - Metamorphosis.wav
Peak level 97.5 %
Extraction speed 6.0 X
Range quality 100.0 %
Test CRC 548E4662
Copy CRC 548E4662
Copy OK
No errors occurred
AccurateRip summary
Track 1 accurately ripped (confidence 1) [9A7F47A9] (AR v1)
Track 2 accurately ripped (confidence 1) [878A35C5] (AR v1)
Track 3 accurately ripped (confidence 1) [A5A74103] (AR v1)
Track 4 accurately ripped (confidence 1) [96D25377] (AR v1)
Track 5 accurately ripped (confidence 1) [3F5EB3C6] (AR v1)
Track 6 accurately ripped (confidence 1) [C592123A] (AR v1)
Track 7 accurately ripped (confidence 1) [F5AAC597] (AR v1)
Track 8 accurately ripped (confidence 1) [D89CADC8] (AR v1)
All tracks accurately ripped
End of status report
==== Log checksum A11B0261B6C2F924E665C1352C86FB14C563A5DEACBD6BDB1CBB5124CA5211CD ====
 
Содержание индексной карты (.CUE)
REM GENRE Jazz
REM DATE 2005
REM DISCID 780E8308
REM COMMENT "ExactAudioCopy v1.0b3"
PERFORMER "Yosvany Terry Cabrera"
TITLE "Metamorphosis"
FILE "Yosvany Terry Cabrera - Metamorphosis.flac" WAVE
TRACK 01 AUDIO
TITLE "Okonkolo Concertante"
PERFORMER "Yosvany Terry Cabrera"
INDEX 01 00:00:00
TRACK 02 AUDIO
TITLE "El Burlon ( The Joker)"
PERFORMER "Yosvany Terry Cabrera"
INDEX 01 07:12:40
TRACK 03 AUDIO
TITLE "Journey of Awareness"
PERFORMER "Yosvany Terry Cabrera"
INDEX 01 13:03:70
TRACK 04 AUDIO
TITLE "This Is It"
PERFORMER "Yosvany Terry Cabrera"
INDEX 01 22:48:00
TRACK 05 AUDIO
TITLE "The Crying"
PERFORMER "Yosvany Terry Cabrera"
INDEX 01 31:55:57
TRACK 06 AUDIO
TITLE "Subversive"
PERFORMER "Yosvany Terry Cabrera"
INDEX 01 39:43:34
TRACK 07 AUDIO
TITLE "Transito a Full (Traffic Jam)"
PERFORMER "Yosvany Terry Cabrera"
INDEX 01 49:09:15
TRACK 08 AUDIO
TITLE "Rampa Abajo"
PERFORMER "Yosvany Terry Cabrera"
INDEX 01 56:36:25
 
Состав
Yosvany Terry Cabrera - alto sax, chekeré (#8)
Avishai Cohen - trumpet
Mike Moreno - guitar
Luis Perdomo - piano
James Genus (#1,4), Hans Glawishnig (#2,3,7), Yunior Terry Cabrera (#5,6,8) - bass
Dafnis Prieto (#1-3,5-8), Jeff "Tain" Watts (#4) - drums
Pedro Martínez - percussion, vocals
02:42
335
Нет комментариев. Ваш будет первым!