Поиск

(Latin Jazz, Mambo) Perez Prado - Best Selection - 2009 (Japan Edition), FLAC (image+.cue), lossless

(Latin Jazz, Mambo) Perez Prado - Best Selection - 2009 (Japan Edition), FLAC (image+.cue), lossless
Треклист:
Perez Prado - Best Selection
Жанр: Latin Jazz, Mambo
Страна-производитель диска: Япония
Год издания: 2009
Издатель (лейбл): Universal Music Company
Номер по каталогу: UICY-80035
Страна: Мексика
Аудиокодек: FLAC (*.flac)
Тип рипа: image+.cue
Битрейт аудио: lossless
Продолжительность: 72:01
Источник (релизер): диск из моей коллекции
Наличие сканов в содержимом раздачи: да
Треклист:
01. Mambo No.5 (Prado) - 2:20
02. Historia de un amor (Almaran) - 1:48
03. La Macarena (Monterde) - 3:28
04. Quizas, Quizas, Quizas (Farres) - 2:43
05. Mambo No.8 (Prado) - 1:30
06. Besame Mucho (Velazquez) - 2:29
07. La bamba (Trad.) - 2:48
08. Copacabana (Manilow-Feldman-Sussman) - 3:21
09. La reine de Saba (Laurent) - 2:33
10. Corazon de melon (Rodriguez) - 2:38
11. Jungle (Sesti) - 3:48
12. Cerezo rosa (Louiguy-Guglielmi) - 1:58
13. El condor pasa (Robles-Milchberg) - 2:24
14. El humahuaqueno (Zaldivar) - 1:53
15. Aquellhos ojos grises (Ramos) - 1:46
16. Tombe la neige (Adamo) - 2:41
17. El bimbo (Morgan) - 3:19
18. Tabu (Lacuona) - 2:59
19. J'ai pleure de joie (Macias-Claudric) - 2:37
20. Cachito (Velazquez) - 2:08
21. Moliendo cafe (Erroni) - 3:29
22. Cha cha cha flamenco (Jesus) - 2:43
23. Jungle Drums (Lecuona) - 2:34
24. Guaglioni (Nisa-Fanciulli) - 2:25
25. Mama yo quiero (Jararaca-Paiva-Negrette) - 2:06
26. Quiereme mucho (Roig) - 2:34
27. Chivirico (Marquez) - 2:03
28. Babalu (Lecuona) - 2:54
 
Лог создания рипа
Exact Audio Copy V1.0 beta 3 from 29. August 2011
EAC extraction logfile from 21. September 2013, 23:57
Perez Prado / Best Selection
Used drive : ASUS DRW-24B1LT Adapter: 5 ID: 1
Read mode : Secure
Utilize accurate stream : Yes
Defeat audio cache : Yes
Make use of C2 pointers : No
Read offset correction : 6
Overread into Lead-In and Lead-Out : No
Fill up missing offset samples with silence : Yes
Delete leading and trailing silent blocks : No
Null samples used in CRC calculations : Yes
Used interface : Native Win32 interface for Win NT & 2000
Used output format : User Defined Encoder
Selected bitrate : 768 kBit/s
Quality : High
Add ID3 tag : No
Command line compressor : C:\Program Files\Exact Audio Copy\Flac\flac.exe
Additional command line options : -8 -V -T "ARTIST=%artist%" -T "TITLE=%title%" -T "ALBUM=%albumtitle%" -T "DATE=%year%" -T "TRACKNUMBER=%tracknr%" -T "TOTALTRACKS=%numtracks%" -T "GENRE=%genre%" -T "ALBUMARTIST=%albumartist%" -T "ALBUM ARTIST=%albumartist%" -T "COMMENT=EAC Secure Mode, Test & Copy, AccurateRip, FLAC -8" %source%
TOC of the extracted CD
Track | Start | Length | Start sector | End sector
---------------------------------------------------------
1 | 0:00.00 | 2:20.21 | 0 | 10520
2 | 2:20.21 | 1:48.18 | 10521 | 18638
3 | 4:08.39 | 3:27.69 | 18639 | 34232
4 | 7:36.33 | 2:42.45 | 34233 | 46427
5 | 10:19.03 | 1:29.43 | 46428 | 53145
6 | 11:48.46 | 2:29.32 | 53146 | 64352
7 | 14:18.03 | 2:48.06 | 64353 | 76958
8 | 17:06.09 | 3:21.34 | 76959 | 92067
9 | 20:27.43 | 2:33.15 | 92068 | 103557
10 | 23:00.58 | 2:38.18 | 103558 | 115425
11 | 25:39.01 | 3:48.05 | 115426 | 132530
12 | 29:27.06 | 1:58.10 | 132531 | 141390
13 | 31:25.16 | 2:23.66 | 141391 | 152181
14 | 33:49.07 | 1:52.73 | 152182 | 160654
15 | 35:42.05 | 1:46.30 | 160655 | 168634
16 | 37:28.35 | 2:40.48 | 168635 | 180682
17 | 40:09.08 | 3:19.18 | 180683 | 195625
18 | 43:28.26 | 2:58.50 | 195626 | 209025
19 | 46:27.01 | 2:36.67 | 209026 | 220792
20 | 49:03.68 | 2:07.60 | 220793 | 230377
21 | 51:11.53 | 3:29.03 | 230378 | 246055
22 | 54:40.56 | 2:43.19 | 246056 | 258299
23 | 57:24.00 | 2:33.73 | 258300 | 269847
24 | 59:57.73 | 2:25.26 | 269848 | 280748
25 | 62:23.24 | 2:05.68 | 280749 | 290191
26 | 64:29.17 | 2:34.17 | 290192 | 301758
27 | 67:03.34 | 2:02.50 | 301759 | 310958
28 | 69:06.09 | 2:54.33 | 310959 | 324041
Range status and errors
Selected range
Filename F:\audio\Perez Prado - Best Selection.wav
Peak level 100.0 %
Extraction speed 6.5 X
Range quality 100.0 %
Test CRC 0A407705
Copy CRC 0A407705
Copy OK
No errors occurred
AccurateRip summary
Track 1 cannot be verified as accurate (confidence 1) [34851C08], AccurateRip returned [BBED06DA] (AR v2)
Track 2 cannot be verified as accurate (confidence 1) [385243E6], AccurateRip returned [AB05736C] (AR v2)
Track 3 cannot be verified as accurate (confidence 1) [C076B1CB], AccurateRip returned [DC9C1C72] (AR v2)
Track 4 cannot be verified as accurate (confidence 1) [2C8A8016], AccurateRip returned [F34A5C7F] (AR v2)
Track 5 cannot be verified as accurate (confidence 1) [02DC8C7A], AccurateRip returned [1E1106FD] (AR v2)
Track 6 cannot be verified as accurate (confidence 1) [3E8D5A5F], AccurateRip returned [70BD7879] (AR v2)
Track 7 cannot be verified as accurate (confidence 1) [98C5ED73], AccurateRip returned [62C7E117] (AR v2)
Track 8 cannot be verified as accurate (confidence 1) [6D5FCF73], AccurateRip returned [56F55C14] (AR v2)
Track 9 cannot be verified as accurate (confidence 1) [BE64A7AC], AccurateRip returned [E5C8C66B] (AR v2)
Track 10 cannot be verified as accurate (confidence 1) [F3336F16], AccurateRip returned [E84E1C2A] (AR v2)
Track 11 cannot be verified as accurate (confidence 1) [5C62C89E], AccurateRip returned [0E6381A8] (AR v2)
Track 12 cannot be verified as accurate (confidence 1) [584C6918], AccurateRip returned [D0CE9037] (AR v2)
Track 13 cannot be verified as accurate (confidence 1) [7168A2AC], AccurateRip returned [B3A04192] (AR v2)
Track 14 cannot be verified as accurate (confidence 1) [A9CF18B3], AccurateRip returned [EFC23F79] (AR v2)
Track 15 cannot be verified as accurate (confidence 1) [40EDAE27], AccurateRip returned [68A3085E] (AR v2)
Track 16 cannot be verified as accurate (confidence 1) [FC34FA55], AccurateRip returned [67BF0DC0] (AR v2)
Track 17 cannot be verified as accurate (confidence 1) [C2A7C193], AccurateRip returned [0E93902A] (AR v2)
Track 18 cannot be verified as accurate (confidence 1) [8370BD49], AccurateRip returned [15363680] (AR v2)
Track 19 cannot be verified as accurate (confidence 1) [66F7785A], AccurateRip returned [657225BC] (AR v2)
Track 20 cannot be verified as accurate (confidence 1) [3D863DCB], AccurateRip returned [88DBAB9A] (AR v2)
Track 21 not present in database
Track 22 cannot be verified as accurate (confidence 1) [C6F6EAAF], AccurateRip returned [9AC696E2] (AR v2)
Track 23 cannot be verified as accurate (confidence 1) [E98A1B6A], AccurateRip returned [138F2BD2] (AR v2)
Track 24 cannot be verified as accurate (confidence 1) [D46756C7], AccurateRip returned [F2956DA6] (AR v2)
Track 25 cannot be verified as accurate (confidence 1) [593FA93F], AccurateRip returned [5EC7C220] (AR v2)
Track 26 cannot be verified as accurate (confidence 1) [FE6484FE], AccurateRip returned [EBAE9208] (AR v2)
Track 27 cannot be verified as accurate (confidence 1) [9668964E], AccurateRip returned [E14624F2] (AR v2)
Track 28 cannot be verified as accurate (confidence 1) [21688549], AccurateRip returned [909CE608] (AR v2)
27 track(s) could not be verified as accurate
1 track(s) not present in the AccurateRip database
No tracks could be verified as accurate
You may have a different pressing from the one(s) in the database
End of status report
---- CUETools DB Plugin V2.1.3
[CTDB TOCID: K3gaKyFLR6pfgquNJist_UUOjGc-] disk not present in database, Submit result: K3gaKyFLR6pfgquNJist_UUOjGc- has been uploaded
==== Log checksum 5F5358F4439B389C4BCBDA8690A395E2D0BA5159A3BE390C519F19B999D06599 ====
 
Содержание индексной карты (.CUE)
REM GENRE Jazz
REM DATE 2009
REM DISCID 8410E01C
REM COMMENT "ExactAudioCopy v1.0b3"
PERFORMER "Perez Prado"
TITLE "Best Selection"
FILE "Perez Prado - Best Selection.wav" WAVE
TRACK 01 AUDIO
TITLE "Mambo No.5"
PERFORMER "Perez Prado"
INDEX 01 00:00:00
TRACK 02 AUDIO
TITLE "Historia de un amor"
PERFORMER "Perez Prado"
INDEX 00 02:18:58
INDEX 01 02:20:21
TRACK 03 AUDIO
TITLE "La Macarena"
PERFORMER "Perez Prado"
INDEX 00 04:07:01
INDEX 01 04:08:39
TRACK 04 AUDIO
TITLE "Quizas, Quizas, Quizas"
PERFORMER "Perez Prado"
INDEX 00 07:34:70
INDEX 01 07:36:33
TRACK 05 AUDIO
TITLE "Mambo No.8"
PERFORMER "Perez Prado"
INDEX 00 10:17:40
INDEX 01 10:19:03
TRACK 06 AUDIO
TITLE "Besame Mucho"
PERFORMER "Perez Prado"
INDEX 00 11:47:08
INDEX 01 11:48:46
TRACK 07 AUDIO
TITLE "La bamba"
PERFORMER "Perez Prado"
INDEX 00 14:16:40
INDEX 01 14:18:03
TRACK 08 AUDIO
TITLE "Copacabana"
PERFORMER "Perez Prado"
INDEX 00 17:04:46
INDEX 01 17:06:09
TRACK 09 AUDIO
TITLE "La reine de Saba"
PERFORMER "Perez Prado"
INDEX 00 20:26:05
INDEX 01 20:27:43
TRACK 10 AUDIO
TITLE "Corazon de melon"
PERFORMER "Perez Prado"
INDEX 00 22:59:20
INDEX 01 23:00:58
TRACK 11 AUDIO
TITLE "Jungle"
PERFORMER "Perez Prado"
INDEX 00 25:37:38
INDEX 01 25:39:01
TRACK 12 AUDIO
TITLE "Cerezo roza"
PERFORMER "Perez Prado"
INDEX 00 29:25:43
INDEX 01 29:27:06
TRACK 13 AUDIO
TITLE "El condor pasa"
PERFORMER "Perez Prado"
INDEX 00 31:23:53
INDEX 01 31:25:16
TRACK 14 AUDIO
TITLE "El humahuaqueno"
PERFORMER "Perez Prado"
INDEX 00 33:47:44
INDEX 01 33:49:07
TRACK 15 AUDIO
TITLE "Aquellhos ojos grises"
PERFORMER "Perez Prado"
INDEX 00 35:40:42
INDEX 01 35:42:05
TRACK 16 AUDIO
TITLE "Tombe la neige"
PERFORMER "Perez Prado"
INDEX 00 37:26:72
INDEX 01 37:28:35
TRACK 17 AUDIO
TITLE "El bimbo"
PERFORMER "Perez Prado"
INDEX 00 40:07:45
INDEX 01 40:09:08
TRACK 18 AUDIO
TITLE "Tabu"
PERFORMER "Perez Prado"
INDEX 00 43:26:63
INDEX 01 43:28:26
TRACK 19 AUDIO
TITLE "J'ai pleure de joie"
PERFORMER "Perez Prado"
INDEX 00 46:25:38
INDEX 01 46:27:01
TRACK 20 AUDIO
TITLE "Cachito"
PERFORMER "Perez Prado"
INDEX 00 49:02:30
INDEX 01 49:03:68
TRACK 21 AUDIO
TITLE "Moliendo cafe"
PERFORMER "Perez Prado"
INDEX 00 51:10:15
INDEX 01 51:11:53
TRACK 22 AUDIO
TITLE "Cha cha cha flamenco"
PERFORMER "Perez Prado"
INDEX 00 54:39:18
INDEX 01 54:40:56
TRACK 23 AUDIO
TITLE "Jungle Drums"
PERFORMER "Perez Prado"
INDEX 00 57:22:37
INDEX 01 57:24:00
TRACK 24 AUDIO
TITLE "Guaglioni"
PERFORMER "Perez Prado"
INDEX 00 59:56:35
INDEX 01 59:57:73
TRACK 25 AUDIO
TITLE "Mama yo quiero"
PERFORMER "Perez Prado"
INDEX 00 62:21:61
INDEX 01 62:23:24
TRACK 26 AUDIO
TITLE "Quiereme mucho"
PERFORMER "Perez Prado"
INDEX 00 64:27:54
INDEX 01 64:29:17
TRACK 27 AUDIO
TITLE "Chivirico"
PERFORMER "Perez Prado"
INDEX 00 67:01:71
INDEX 01 67:03:34
TRACK 28 AUDIO
TITLE "Babalu"
PERFORMER "Perez Prado"
INDEX 00 69:04:46
INDEX 01 69:06:09
 
Отчет CUETools
[CUETools log; Date: 22.09.2013 0:01:44; Version: 2.1.4]
[CTDB TOCID: K3gaKyFLR6pfgquNJist_UUOjGc-] found.
Track | CTDB Status
1 | (1/1) Accurately ripped
2 | (1/1) Accurately ripped
3 | (1/1) Accurately ripped
4 | (1/1) Accurately ripped
5 | (1/1) Accurately ripped
6 | (1/1) Accurately ripped
7 | (1/1) Accurately ripped
8 | (1/1) Accurately ripped
9 | (1/1) Accurately ripped
10 | (1/1) Accurately ripped
11 | (1/1) Accurately ripped
12 | (1/1) Accurately ripped
13 | (1/1) Accurately ripped
14 | (1/1) Accurately ripped
15 | (1/1) Accurately ripped
16 | (1/1) Accurately ripped
17 | (1/1) Accurately ripped
18 | (1/1) Accurately ripped
19 | (1/1) Accurately ripped
20 | (1/1) Accurately ripped
21 | (1/1) Accurately ripped
22 | (1/1) Accurately ripped
23 | (1/1) Accurately ripped
24 | (1/1) Accurately ripped
25 | (1/1) Accurately ripped
26 | (1/1) Accurately ripped
27 | (1/1) Accurately ripped
28 | (1/1) Accurately ripped
[AccurateRip ID: 00478cf0-059bc9ec-8410e01c] found.
Track [ CRC | V2 ] Status
01 [480b594a|34851c08] (0+0/1) No match
02 [d9a17f13|385243e6] (0+0/1) No match
03 [91856564|c076b1cb] (0+0/1) No match
04 [bae49de9|2c8a8016] (0+0/1) No match
05 [562ba48b|02dc8c7a] (0+0/1) No match
06 [dbbf0266|3e8d5a5f] (0+0/1) No match
07 [8a85faf6|98c5ed73] (0+0/1) No match
08 [52075238|6d5fcf73] (0+0/1) No match
09 [13742966|be64a7ac] (0+0/1) No match
10 [e51616c0|f3336f16] (0+0/1) No match
11 [975f4edb|5c62c89e] (0+0/1) No match
12 [c7da4441|584c6918] (0+0/1) No match
13 [ab0abada|7168a2ac] (0+0/1) No match
14 [cd7ffa30|a9cf18b3] (0+0/1) No match
15 [626aeee6|40edae27] (0+0/1) No match
16 [88069792|fc34fa55] (0+0/1) No match
17 [7087bd34|c2a7c193] (0+0/1) No match
18 [e47c4d25|8370bd49] (0+0/1) No match
19 [3590deb0|66f7785a] (0+0/1) No match
20 [c1f6ee72|3d863dcb] (0+0/1) No match
21 [4e97d576|3bf4a3a3] (0+0/0) No match
22 [be6d337c|c6f6eaaf] (0+0/1) No match
23 [66aa08d6|e98a1b6a] (0+0/1) No match
24 [03ea00e5|d46756c7] (0+0/1) No match
25 [226cd263|593fa93f] (0+0/1) No match
26 [a707565e|fe6484fe] (0+0/1) No match
27 [44c8be18|9668964e] (0+0/1) No match
28 [3895dc06|21688549] (0+0/1) No match
Offsetted by 25:
01 [bbed06da] (1/1) Accurately ripped
02 [ab05736c] (1/1) Accurately ripped
03 [dc9c1c72] (1/1) Accurately ripped
04 [f34a5c7f] (1/1) Accurately ripped
05 [1e1106fd] (1/1) Accurately ripped
06 [70bd7879] (1/1) Accurately ripped
07 [62c7e117] (1/1) Accurately ripped
08 [56f55c14] (1/1) Accurately ripped
09 [e5c8c66b] (1/1) Accurately ripped
10 [e84e1c2a] (1/1) Accurately ripped
11 [0e6381a8] (1/1) Accurately ripped
12 [d0ce9037] (1/1) Accurately ripped
13 [b3a04192] (1/1) Accurately ripped
14 [efc23f79] (1/1) Accurately ripped
15 [68a3085e] (1/1) Accurately ripped
16 [67bf0dc0] (1/1) Accurately ripped
17 [0e93902a] (1/1) Accurately ripped
18 [15363680] (1/1) Accurately ripped
19 [657225bc] (1/1) Accurately ripped
20 [88dbab9a] (1/1) Accurately ripped
21 [77659ada] (0/0) No match
22 [9ac696e2] (1/1) Accurately ripped
23 [138f2bd2] (1/1) Accurately ripped
24 [f2956da6] (1/1) Accurately ripped
25 [5ec7c220] (1/1) Accurately ripped
26 [ebae9208] (1/1) Accurately ripped
27 [e14624f2] (1/1) Accurately ripped
28 [909ce608] (1/1) Accurately ripped
Track Peak [ CRC32 ] [W/O NULL] [ LOG ]
-- 100,0 [0A407705] [A12DAB2B] CRC32
01 97,7 [F0E4FB7B] [E8F71E13]
02 85,3 [3EC23A3D] [1634370A]
03 89,1 [A749FD34] [250448A9]
04 95,3 [7F3F7874] [EAC6CF84]
05 100,0 [57D0FB97] [264031E5]
06 97,7 [5D082699] [1B1D2DEE]
07 100,0 [965461E9] [55170280]
08 95,5 [2E848B7A] [4A37BFCC]
09 91,2 [E0AE35E2] [34F426FC]
10 85,8 [1D74455E] [6DFC6B81]
11 91,2 [CCA308FC] [1D659681]
12 95,3 [EF41AA56] [09A3E6D1]
13 91,1 [99E6C8D6] [381F0279]
14 93,3 [886F05FF] [8BE0C3B8]
15 91,1 [29C8185D] [6A75FB5E]
16 87,0 [CE747E21] [4E1073F7]
17 99,2 [2FC32708] [9F6308F2]
18 93,3 [94918CAD] [2F8FE16B]
19 100,0 [8DF166EE] [842C4021]
20 89,1 [C27BD223] [46A5DEC2]
21 85,2 [79C16839] [B926BE04]
22 83,9 [F1EF15DE] [A2A4ABC1]
23 94,1 [A3D44973] [9E5612AE]
24 76,0 [FCA73D18] [F2EAE767]
25 80,2 [D2F3F803] [A189CFF8]
26 99,1 [CCC0F48A] [5B6E2015]
27 89,0 [1413156E] [D6B689A9]
28 97,7 [CC7FFF09] [2F32ABCB]
12:12
374
Нет комментариев. Ваш будет первым!