Поиск

(Brazilian Jazz) Badi Assad - Chameleon - 1998, FLAC (tracks+.cue), lossless

(Brazilian Jazz) Badi Assad - Chameleon - 1998, FLAC (tracks+.cue), lossless
Треклист:
Badi Assad – Chameleon
Жанр: Brazilian Jazz
Год издания: 1998
Издатель (лейбл): i.e. Music
Номер по каталогу: 539 889-2
Аудиокодек: FLAC (*.flac)
Тип рипа: tracks+.cue
Битрейт аудио: lossless
Продолжительность: 53:01
Источник (релизер): What.cd (spoutnikp)
Наличие сканов в содержимом раздачи: нет
Треклист:
01. Rhythms Of The World (6:15)
02. Butterfly (4:14)
03. Waves (4:51)
04. Ai Que Saudade D'Ocê (4:00)
05. Naked (5:31)
06. Naio Naio (5:23)
07. Rain Trance (1:25)
08. Waterfall (3:07)
09. Dolphins In The Blue Mist (3:06)
10. Ponta de Areia (4:00)
11. While My Guitar Gently Weeps (5:12)
12. Flowing ... Into Formlessness (5:56)
Rec.: Starlight Studios, Los Angeles, CA, August 31 - October, 1997.
 
 
Лог создания рипа
X Lossless Decoder version 20100711 (120.5)
XLD extraction logfile from 2010-08-22 18:27:08 -0400
Badi Assad / Chameleon
Used drive : HL-DT-ST DVDRAM GE20LU10 (revision FE05)
Use cdparanoia mode : YES (CDParanoia III 10.2 engine)
Disable audio cache : OK for the drive with cache less than 2750KB
Make use of C2 pointers : NO
Read offset correction : 667
Max retry count : 100
Gap status : Analyzed, Appended
TOC of the extracted CD
Track | Start | Length | Start sector | End sector
---------------------------------------------------------
1 | 00:00:00 | 06:14:72 | 0 | 28121
2 | 06:14:72 | 04:13:58 | 28122 | 47154
3 | 10:28:55 | 04:51:37 | 47155 | 69016
4 | 15:20:17 | 04:00:23 | 69017 | 87039
5 | 19:20:40 | 05:31:02 | 87040 | 111866
6 | 24:51:42 | 05:22:50 | 111867 | 136066
7 | 30:14:17 | 01:24:50 | 136067 | 142416
8 | 31:38:67 | 03:07:23 | 142417 | 156464
9 | 34:46:15 | 03:06:27 | 156465 | 170441
10 | 37:52:42 | 04:00:03 | 170442 | 188444
11 | 41:52:45 | 05:12:07 | 188445 | 211851
12 | 47:04:52 | 05:56:05 | 211852 | 238556
List of alternate offset correction values
# | Absolute | Relative | Confidence
------------------------------------------
1 | 1685 | 1018 | 19
2 | 1655 | 988 | 6
Track 01
Filename : /Volumes/big 1/FLAC/Badi Assad - Chameleon/01 - Rhythms of the World.flac
/Volumes/big 1/FLAC/Badi Assad - Chameleon/01 - Rhythms of the World.mp3
Pre-gap length : 00:02:00
CRC32 hash (test run) : 8DCC6960
CRC32 hash : 8DCC6960
CRC32 hash (skip zero) : 5109C461
AccurateRip signature : 62C869A8
->Accurately ripped! (confidence 16)
Statistics
Read error : 0
Skipped (treated as error) : 0
Edge jitter error (maybe fixed) : 0
Atom jitter error (maybe fixed) : 0
Drift error (maybe fixed) : 0
Dropped bytes error (maybe fixed) : 0
Duplicated bytes error (maybe fixed) : 0
Inconsistency in error sectors : 0
Track 02
Filename : /Volumes/big 1/FLAC/Badi Assad - Chameleon/02 - Butterfly.flac
/Volumes/big 1/FLAC/Badi Assad - Chameleon/02 - Butterfly.mp3
CRC32 hash (test run) : D519B98F
CRC32 hash : D519B98F
CRC32 hash (skip zero) : 4A3C86AE
AccurateRip signature : 34C52F42
->Accurately ripped! (confidence 16)
Statistics
Read error : 0
Skipped (treated as error) : 0
Edge jitter error (maybe fixed) : 0
Atom jitter error (maybe fixed) : 0
Drift error (maybe fixed) : 0
Dropped bytes error (maybe fixed) : 0
Duplicated bytes error (maybe fixed) : 0
Inconsistency in error sectors : 0
Track 03
Filename : /Volumes/big 1/FLAC/Badi Assad - Chameleon/03 - Waves.flac
/Volumes/big 1/FLAC/Badi Assad - Chameleon/03 - Waves.mp3
Pre-gap length : 00:02:00
CRC32 hash (test run) : CAA12297
CRC32 hash : CAA12297
CRC32 hash (skip zero) : 48ABDCF7
AccurateRip signature : 7ADBED1F
->Accurately ripped! (confidence 16)
Statistics
Read error : 0
Skipped (treated as error) : 0
Edge jitter error (maybe fixed) : 0
Atom jitter error (maybe fixed) : 0
Drift error (maybe fixed) : 0
Dropped bytes error (maybe fixed) : 0
Duplicated bytes error (maybe fixed) : 0
Inconsistency in error sectors : 0
Track 04
Filename : /Volumes/big 1/FLAC/Badi Assad - Chameleon/04 - Ai Que Saudade D'Ocê.flac
/Volumes/big 1/FLAC/Badi Assad - Chameleon/04 - Ai Que Saudade D'Ocê.mp3
CRC32 hash (test run) : 22EAC8F4
CRC32 hash : 22EAC8F4
CRC32 hash (skip zero) : C427EE64
AccurateRip signature : 86A5E99C
->Accurately ripped! (confidence 15)
Statistics
Read error : 0
Skipped (treated as error) : 0
Edge jitter error (maybe fixed) : 0
Atom jitter error (maybe fixed) : 0
Drift error (maybe fixed) : 0
Dropped bytes error (maybe fixed) : 0
Duplicated bytes error (maybe fixed) : 0
Inconsistency in error sectors : 0
Track 05
Filename : /Volumes/big 1/FLAC/Badi Assad - Chameleon/05 - Naked.flac
/Volumes/big 1/FLAC/Badi Assad - Chameleon/05 - Naked.mp3
Pre-gap length : 00:00:23
CRC32 hash (test run) : C034D5FF
CRC32 hash : C034D5FF
CRC32 hash (skip zero) : F590A373
AccurateRip signature : 77A30E68
->Accurately ripped! (confidence 16)
Statistics
Read error : 0
Skipped (treated as error) : 0
Edge jitter error (maybe fixed) : 0
Atom jitter error (maybe fixed) : 0
Drift error (maybe fixed) : 0
Dropped bytes error (maybe fixed) : 0
Duplicated bytes error (maybe fixed) : 0
Inconsistency in error sectors : 0
Track 06
Filename : /Volumes/big 1/FLAC/Badi Assad - Chameleon/06 - Naio Naio.flac
/Volumes/big 1/FLAC/Badi Assad - Chameleon/06 - Naio Naio.mp3
CRC32 hash (test run) : 16458182
CRC32 hash : 16458182
CRC32 hash (skip zero) : 0D6B1DC8
AccurateRip signature : 25AFF057
->Accurately ripped! (confidence 16)
Statistics
Read error : 0
Skipped (treated as error) : 0
Edge jitter error (maybe fixed) : 0
Atom jitter error (maybe fixed) : 0
Drift error (maybe fixed) : 0
Dropped bytes error (maybe fixed) : 0
Duplicated bytes error (maybe fixed) : 0
Inconsistency in error sectors : 0
Track 07
Filename : /Volumes/big 1/FLAC/Badi Assad - Chameleon/07 - Rain Trance.flac
/Volumes/big 1/FLAC/Badi Assad - Chameleon/07 - Rain Trance.mp3
CRC32 hash (test run) : F7FC8035
CRC32 hash : F7FC8035
CRC32 hash (skip zero) : AA71E421
AccurateRip signature : FF3F0874
->Accurately ripped! (confidence 16)
Statistics
Read error : 0
Skipped (treated as error) : 0
Edge jitter error (maybe fixed) : 0
Atom jitter error (maybe fixed) : 0
Drift error (maybe fixed) : 0
Dropped bytes error (maybe fixed) : 0
Duplicated bytes error (maybe fixed) : 0
Inconsistency in error sectors : 0
Track 08
Filename : /Volumes/big 1/FLAC/Badi Assad - Chameleon/08 - Waterfall.flac
/Volumes/big 1/FLAC/Badi Assad - Chameleon/08 - Waterfall.mp3
CRC32 hash (test run) : D3C75242
CRC32 hash : D3C75242
CRC32 hash (skip zero) : 1C8AB7AA
AccurateRip signature : FE27FF68
->Accurately ripped! (confidence 16)
Statistics
Read error : 0
Skipped (treated as error) : 0
Edge jitter error (maybe fixed) : 0
Atom jitter error (maybe fixed) : 0
Drift error (maybe fixed) : 0
Dropped bytes error (maybe fixed) : 0
Duplicated bytes error (maybe fixed) : 0
Inconsistency in error sectors : 0
Track 09
Filename : /Volumes/big 1/FLAC/Badi Assad - Chameleon/09 - Dolphins in the Blue Mist.flac
/Volumes/big 1/FLAC/Badi Assad - Chameleon/09 - Dolphins in the Blue Mist.mp3
Pre-gap length : 00:00:20
CRC32 hash (test run) : 19698191
CRC32 hash : 19698191
CRC32 hash (skip zero) : 73FF3EC8
AccurateRip signature : 63D73726
->Accurately ripped! (confidence 16)
Statistics
Read error : 0
Skipped (treated as error) : 0
Edge jitter error (maybe fixed) : 0
Atom jitter error (maybe fixed) : 0
Drift error (maybe fixed) : 0
Dropped bytes error (maybe fixed) : 0
Duplicated bytes error (maybe fixed) : 0
Inconsistency in error sectors : 0
Track 10
Filename : /Volumes/big 1/FLAC/Badi Assad - Chameleon/10 - Ponta de Areia.flac
/Volumes/big 1/FLAC/Badi Assad - Chameleon/10 - Ponta de Areia.mp3
CRC32 hash (test run) : 2676B27F
CRC32 hash : 2676B27F
CRC32 hash (skip zero) : 03345394
AccurateRip signature : 9E8710FD
->Accurately ripped! (confidence 16)
Statistics
Read error : 0
Skipped (treated as error) : 0
Edge jitter error (maybe fixed) : 0
Atom jitter error (maybe fixed) : 0
Drift error (maybe fixed) : 0
Dropped bytes error (maybe fixed) : 0
Duplicated bytes error (maybe fixed) : 0
Inconsistency in error sectors : 0
Track 11
Filename : /Volumes/big 1/FLAC/Badi Assad - Chameleon/11 - While My Guitar Gently Weeps.flac
/Volumes/big 1/FLAC/Badi Assad - Chameleon/11 - While My Guitar Gently Weeps.mp3
CRC32 hash (test run) : A59740FE
CRC32 hash : A59740FE
CRC32 hash (skip zero) : 50050D1C
AccurateRip signature : 7253AD56
->Accurately ripped! (confidence 16)
Statistics
Read error : 0
Skipped (treated as error) : 0
Edge jitter error (maybe fixed) : 0
Atom jitter error (maybe fixed) : 0
Drift error (maybe fixed) : 0
Dropped bytes error (maybe fixed) : 0
Duplicated bytes error (maybe fixed) : 0
Inconsistency in error sectors : 0
Track 12
Filename : /Volumes/big 1/FLAC/Badi Assad - Chameleon/12 - Flowing... Into Formlessness.flac
/Volumes/big 1/FLAC/Badi Assad - Chameleon/12 - Flowing... Into Formlessness.mp3
Pre-gap length : 00:01:60
CRC32 hash (test run) : E947F40E
CRC32 hash : E947F40E
CRC32 hash (skip zero) : 1D4D97A1
AccurateRip signature : D38C7041
->Accurately ripped! (confidence 15)
Statistics
Read error : 0
Skipped (treated as error) : 0
Edge jitter error (maybe fixed) : 0
Atom jitter error (maybe fixed) : 0
Drift error (maybe fixed) : 0
Dropped bytes error (maybe fixed) : 0
Duplicated bytes error (maybe fixed) : 0
Inconsistency in error sectors : 0
No errors occurred
End of status report
 
Содержание индексной карты (.CUE)
TITLE "Chameleon"
PERFORMER "Badi Assad"
CATALOG 0731453988927
REM GENRE Jazz
REM DATE 1998
REM DISCID 9C0C6C0C
FILE "01. Rhythms Of The World.flac" WAVE
TRACK 01 AUDIO
ISRC USIE19800005
INDEX 01 00:00:00
FILE "02. Butterfly.flac" WAVE
TRACK 02 AUDIO
ISRC USIE19800002
INDEX 01 00:00:00
TRACK 03 AUDIO
ISRC USIE19800003
INDEX 00 04:11:58
FILE "03. Waves.flac" WAVE
INDEX 01 00:00:00
FILE "04. Ai Que Saudade D'Oce.flac" WAVE
TRACK 04 AUDIO
ISRC USIE19800004
INDEX 01 00:00:00
TRACK 05 AUDIO
ISRC USIE19800006
INDEX 00 04:00:00
FILE "05. Naked.flac" WAVE
INDEX 01 00:00:00
FILE "06. Naio Naio.flac" WAVE
TRACK 06 AUDIO
ISRC USIE19800001
INDEX 01 00:00:00
FILE "07. Rain Trance.flac" WAVE
TRACK 07 AUDIO
ISRC USIE19800010
INDEX 01 00:00:00
FILE "08. Waterfall.flac" WAVE
TRACK 08 AUDIO
ISRC USIE19800009
INDEX 01 00:00:00
TRACK 09 AUDIO
ISRC USIE19800007
INDEX 00 03:07:03
FILE "09. Dolphins In The Blue Mist.flac" WAVE
INDEX 01 00:00:00
FILE "10. Ponta de Areia.flac" WAVE
TRACK 10 AUDIO
ISRC USIE19800008
INDEX 01 00:00:00
FILE "11. While My Guitar Gently Weeps.flac" WAVE
TRACK 11 AUDIO
ISRC USIE19800011
INDEX 01 00:00:00
TRACK 12 AUDIO
ISRC USIE19800012
INDEX 00 05:10:22
FILE "12. Flowing ... Into Formlessness.flac" WAVE
INDEX 01 00:00:00
 
AccurateRip
[CUETools log; Date: 19.09.2013 21:03:59; Version: 2.0.9]
[AccurateRip ID: 001838f6-00dd4456-9c0c6c0c] found.
Track [ CRC ] Status
01 [62c869a8] (17/83) Accurately ripped
02 [34c52f42] (17/83) Accurately ripped
03 [7adbed1f] (17/83) Accurately ripped
04 [86a5e99c] (16/82) Accurately ripped
05 [77a30e68] (17/83) Accurately ripped
06 [25aff057] (17/86) Accurately ripped
07 [ff3f0874] (17/85) Accurately ripped
08 [fe27ff68] (17/84) Accurately ripped
09 [63d73726] (17/84) Accurately ripped
10 [9e8710fd] (17/83) Accurately ripped
11 [7253ad56] (17/85) Accurately ripped
12 [d38c7041] (16/77) Accurately ripped
Offsetted by 988:
01 [43ca27a6] (08/83) Accurately ripped
02 [cec5ce11] (08/83) Accurately ripped
03 [748ae583] (09/83) Accurately ripped
04 [3711fc54] (09/82) Accurately ripped
05 [a99a3a36] (09/83) Accurately ripped
06 [3b14b382] (09/86) Accurately ripped
07 [cb969910] (09/85) Accurately ripped
08 [a9437b73] (09/84) Accurately ripped
09 [d9646fc6] (09/84) Accurately ripped
10 [9a091269] (09/83) Accurately ripped
11 [9248518a] (09/85) Accurately ripped
12 [2cd314df] (06/77) Accurately ripped
Offsetted by 1018:
01 [6b122c2c] (21/83) Accurately ripped
02 [cecad062] (22/83) Accurately ripped
03 [34e0c86e] (22/83) Accurately ripped
04 [54be6617] (23/82) Accurately ripped
05 [e457b92f] (22/83) Accurately ripped
06 [f4d192b6] (24/86) Accurately ripped
07 [13f9158b] (24/85) Accurately ripped
08 [58e92707] (24/84) Accurately ripped
09 [41d7a954] (24/84) Accurately ripped
10 [4d885bc9] (23/83) Accurately ripped
11 [3948bc56] (25/85) Accurately ripped
12 [a5e9d460] (18/77) Accurately ripped
Track Peak [ CRC32 ] [W/O NULL]
-- 100,0 [610950D0] [D1D89DB0]
01 97,9 [8DCC6960] [5109C461]
02 99,0 [D519B98F] [4A3C86AE]
03 98,9 [CAA12297] [48ABDCF7]
04 100,0 [22EAC8F4] [C427EE64]
05 100,0 [C034D5FF] [F590A373]
06 97,9 [16458182] [0D6B1DC8]
07 97,9 [F7FC8035] [AA71E421]
08 100,0 [D3C75242] [1C8AB7AA]
09 97,9 [19698191] [73FF3EC8]
10 99,5 [2676B27F] [03345394]
11 98,6 [A59740FE] [50050D1C]
12 99,8 [E947F40E] [1D4D97A1]
13:11
470
Нет комментариев. Ваш будет первым!