Поиск

(Brazilian Jazz) Badi Assad - Rhythms - 1995, FLAC (tracks+.cue), lossless

(Brazilian Jazz) Badi Assad - Rhythms - 1995, FLAC (tracks+.cue), lossless
Треклист:
Badi Assad – Rhythms
Жанр: Brazilian Jazz
Год издания: 1995
Издатель (лейбл): Chesky Records
Номер по каталогу: JD137
Аудиокодек: FLAC (*.flac)
Тип рипа: tracks+.cue
Битрейт аудио: lossless
Продолжительность: 54:44
Источник (релизер): What.cd (MRmarket)
Наличие сканов в содержимом раздачи: сетевые
Треклист:
01. Pulo do gato (5:05)
02. À gandála dos ondas / Beppo (6:30)
03. À primeira vista (3:10)
04. O choro de Juliana (3:02)
05. Rhythms (2:19)
06. Song For Badi (3:39)
07. Bate-coxa (2:34)
08. Feixe (3:48)
09. Quase um funk p'ra Badi / Virus (3:51)
10. Laser (3:36)
11. Ica (3:54)
12. Pau Brasil (3:11)
13. Moods (7:50)
14. Carta a l'exili (2:14)
Rec.: St. Peter's Episcopal Church, NYC, NY, June 26-29, 1995.
 
 
Лог создания рипа
Exact Audio Copy V0.99 prebeta 5 from 4. May 2009
EAC extraction logfile from 26. October 2009, 9:03
Badi Assad / Rhythms
Used drive : HL-DT-STDVDRRW GSA-H30L Adapter: 1 ID: 0
Read mode : Secure
Utilize accurate stream : Yes
Defeat audio cache : Yes
Make use of C2 pointers : No
Read offset correction : 102
Overread into Lead-In and Lead-Out : Yes
Fill up missing offset samples with silence : Yes
Delete leading and trailing silent blocks : No
Null samples used in CRC calculations : Yes
Used interface : Installed external ASPI interface
Gap handling : Appended to previous track
Used output format : User Defined Encoder
Selected bitrate : 320 kBit/s
Quality : High
Add ID3 tag : No
Command line compressor : C:\Program Files\Exact Audio Copy\Flac\flac.exe
Additional command line options : -V -8 -T "artist=%a" -T "title=%t" -T "album=%g" -T "date=%y" -T "tracknumber=%n" -T "genre=%m" %s
TOC of the extracted CD
Track | Start | Length | Start sector | End sector
---------------------------------------------------------
1 | 0:00.30 | 5:04.58 | 30 | 22887
2 | 5:05.13 | 6:30.35 | 22888 | 52172
3 | 11:35.48 | 3:09.38 | 52173 | 66385
4 | 14:45.11 | 3:01.58 | 66386 | 80018
5 | 17:46.69 | 2:19.21 | 80019 | 90464
6 | 20:06.15 | 3:39.20 | 90465 | 106909
7 | 23:45.35 | 2:34.10 | 106910 | 118469
8 | 26:19.45 | 3:47.62 | 118470 | 135556
9 | 30:07.32 | 3:51.26 | 135557 | 152907
10 | 33:58.58 | 3:36.23 | 152908 | 169130
11 | 37:35.06 | 3:53.60 | 169131 | 186665
12 | 41:28.66 | 3:11.21 | 186666 | 201011
13 | 44:40.12 | 7:50.32 | 201012 | 236293
14 | 52:30.44 | 2:13.62 | 236294 | 246330
Track 1
Filename Z:\music\test\Badi Assad - Rhythms - 1995\01. Pulo do gato.wav
Pre-gap length 0:00:02.30
Peak level 91.8 %
Track quality 100.0 %
Test CRC EEAC34FA
Copy CRC EEAC34FA
Accurately ripped (confidence 8) [3E5D2CC6]
Copy OK
Track 2
Filename Z:\music\test\Badi Assad - Rhythms - 1995\02. А gandбla dos ondas , Beppo.wav
Peak level 48.7 %
Track quality 100.0 %
Test CRC A8ED56C4
Copy CRC A8ED56C4
Accurately ripped (confidence 8) [3FDB5C2B]
Copy OK
Track 3
Filename Z:\music\test\Badi Assad - Rhythms - 1995\03. А primeira vista.wav
Peak level 37.9 %
Track quality 100.0 %
Test CRC 039375AB
Copy CRC 039375AB
Accurately ripped (confidence 8) [DD0AC6A1]
Copy OK
Track 4
Filename Z:\music\test\Badi Assad - Rhythms - 1995\04. O choro de Juliana.wav
Peak level 24.6 %
Track quality 100.0 %
Test CRC 715A44F9
Copy CRC 715A44F9
Accurately ripped (confidence 8) [259132A3]
Copy OK
Track 5
Filename Z:\music\test\Badi Assad - Rhythms - 1995\05. Rhythms.wav
Peak level 72.3 %
Track quality 100.0 %
Test CRC 09B13545
Copy CRC 09B13545
Accurately ripped (confidence 8) [2BFB958B]
Copy OK
Track 6
Filename Z:\music\test\Badi Assad - Rhythms - 1995\06. Song for Badi.wav
Peak level 21.8 %
Track quality 100.0 %
Test CRC FBC0395D
Copy CRC FBC0395D
Accurately ripped (confidence 8) [0C98F791]
Copy OK
Track 7
Filename Z:\music\test\Badi Assad - Rhythms - 1995\07. Bate-coxa.wav
Peak level 68.8 %
Track quality 100.0 %
Test CRC 60F088B6
Copy CRC 60F088B6
Accurately ripped (confidence 8) [73449A52]
Copy OK
Track 8
Filename Z:\music\test\Badi Assad - Rhythms - 1995\08. Feixe.wav
Peak level 16.9 %
Track quality 100.0 %
Test CRC 3A8C8343
Copy CRC 3A8C8343
Accurately ripped (confidence 8) [57D96F91]
Copy OK
Track 9
Filename Z:\music\test\Badi Assad - Rhythms - 1995\09. Quase um funk p'ra Badi , Virus.wav
Peak level 99.9 %
Track quality 100.0 %
Test CRC 995F4D0F
Copy CRC 995F4D0F
Accurately ripped (confidence 8) [653E33E0]
Copy OK
Track 10
Filename Z:\music\test\Badi Assad - Rhythms - 1995\10. Laser.wav
Peak level 15.4 %
Track quality 100.0 %
Test CRC 0C1304B3
Copy CRC 0C1304B3
Accurately ripped (confidence 8) [FF2FA70D]
Copy OK
Track 11
Filename Z:\music\test\Badi Assad - Rhythms - 1995\11. Ica.wav
Peak level 98.7 %
Track quality 100.0 %
Test CRC B3F44F6A
Copy CRC B3F44F6A
Accurately ripped (confidence 8) [17E5E012]
Copy OK
Track 12
Filename Z:\music\test\Badi Assad - Rhythms - 1995\12. Pau Brasil.wav
Pre-gap length 0:00:00.01
Peak level 98.7 %
Track quality 99.9 %
Test CRC C97E6632
Copy CRC C97E6632
Accurately ripped (confidence 8) [E5BA5949]
Copy OK
Track 13
Filename Z:\music\test\Badi Assad - Rhythms - 1995\13. Moods.wav
Peak level 85.9 %
Track quality 100.0 %
Test CRC FBD2376A
Copy CRC FBD2376A
Accurately ripped (confidence 8) [4D3647DF]
Copy OK
Track 14
Filename Z:\music\test\Badi Assad - Rhythms - 1995\14. Carta a l'exili.wav
Peak level 94.2 %
Track quality 99.9 %
Test CRC B4446CF7
Copy CRC B4446CF7
Accurately ripped (confidence 8) [197FDB47]
Copy OK
All tracks accurately ripped
No errors occurred
End of status report
 
Содержание индексной карты (.CUE)
REM GENRE Brazilian Jazz
REM DATE 1995
REM DISCID C40CD40E
REM COMMENT "ExactAudioCopy v0.99pb5"
PERFORMER "Badi Assad"
TITLE "Rhythms"
FILE "01. Pulo do gato.flac" WAVE
TRACK 01 AUDIO
PREGAP 00:00:30
INDEX 01 00:00:00
FILE "02. A gandala dos ondas - Beppo.flac" WAVE
TRACK 02 AUDIO
INDEX 01 00:00:00
FILE "03. A primeira vista.flac" WAVE
TRACK 03 AUDIO
INDEX 01 00:00:00
FILE "04. O choro de Juliana.flac" WAVE
TRACK 04 AUDIO
INDEX 01 00:00:00
FILE "05. Rhythms.flac" WAVE
TRACK 05 AUDIO
INDEX 01 00:00:00
FILE "06. Song For Badi.flac" WAVE
TRACK 06 AUDIO
INDEX 01 00:00:00
FILE "07. Bate-coxa.flac" WAVE
TRACK 07 AUDIO
INDEX 01 00:00:00
FILE "08. Feixe.flac" WAVE
TRACK 08 AUDIO
INDEX 01 00:00:00
FILE "09. Quase um funk p'ra Badi - Virus.flac" WAVE
TRACK 09 AUDIO
INDEX 01 00:00:00
FILE "10. Laser.flac" WAVE
TRACK 10 AUDIO
INDEX 01 00:00:00
FILE "11. Ica.flac" WAVE
TRACK 11 AUDIO
INDEX 01 00:00:00
TRACK 12 AUDIO
REM INDEX 00 03:53:59
FILE "12. Pau Brasil.flac" WAVE
INDEX 01 00:00:00
FILE "13. Moods.flac" WAVE
TRACK 13 AUDIO
INDEX 01 00:00:00
FILE "14. Carta a l'exili.flac" WAVE
TRACK 14 AUDIO
INDEX 01 00:00:00
 
AccurateRip
[CUETools log; Date: 19.09.2013 15:18:51; Version: 2.0.9]
Pregap length 00:00:30.
[AccurateRip ID: 001c7618-012aa7a7-c40cd40e] found.
Track [ CRC ] Status
01 [3e5d2cc6] (33/59) Accurately ripped
02 [3fdb5c2b] (33/59) Accurately ripped
03 [dd0ac6a1] (33/59) Accurately ripped
04 [259132a3] (33/59) Accurately ripped
05 [2bfb958b] (33/59) Accurately ripped
06 [0c98f791] (33/59) Accurately ripped
07 [73449a52] (33/59) Accurately ripped
08 [57d96f91] (33/59) Accurately ripped
09 [653e33e0] (33/59) Accurately ripped
10 [ff2fa70d] (33/59) Accurately ripped
11 [17e5e012] (33/59) Accurately ripped
12 [e5ba5949] (33/59) Accurately ripped
13 [4d3647df] (33/59) Accurately ripped
14 [197fdb47] (33/59) Accurately ripped
Offsetted by -29:
01 [ec374875] (03/59) Accurately ripped
02 [02ba54d5] (03/59) Accurately ripped
03 [aba80420] (03/59) Accurately ripped
04 [53154b34] (03/59) Accurately ripped
05 [6094f252] (03/59) Accurately ripped
06 [bd399eb1] (03/59) Accurately ripped
07 [5d503a91] (03/59) Accurately ripped
08 [17a24e20] (03/59) Accurately ripped
09 [831b88b6] (03/59) Accurately ripped
10 [6ce4332e] (03/59) Accurately ripped
11 [b92a1ffe] (03/59) Accurately ripped
12 [b4e93c52] (03/59) Accurately ripped
13 [2e6c2ba3] (03/59) Accurately ripped
14 [9197da6b] (03/59) Accurately ripped
Track Peak [ CRC32 ] [W/O NULL] [ LOG ]
-- 99,9 [E96520D1] [C83A2B37]
01 91,8 [EEAC34FA] [57BA19AD] CRC32
02 48,7 [A8ED56C4] [5146A6A1] CRC32
03 37,9 [039375AB] [C31E5EDB] CRC32
04 24,6 [715A44F9] [A0A68A88] CRC32
05 72,2 [09B13545] [9F27CD9B] CRC32
06 21,8 [FBC0395D] [995E3A49] CRC32
07 68,8 [60F088B6] [E172ABA4] CRC32
08 16,9 [3A8C8343] [AE9F038C] CRC32
09 99,9 [995F4D0F] [A21CBD27] CRC32
10 15,4 [0C1304B3] [210ABA33] CRC32
11 98,7 [B3F44F6A] [1758E9AD] CRC32
12 98,7 [C97E6632] [4D9536B0] CRC32
13 85,9 [FBD2376A] [0917059E] CRC32
14 94,2 [B4446CF7] [855B1AC0] CRC32
12:10
455
Нет комментариев. Ваш будет первым!