Поиск

(Flamenco Jazz, ACT Music) Gerardo Nunez - Andando el tiempo - 2004, FLAC (tracks+.cue), lossless

(Flamenco Jazz, ACT Music) Gerardo Nunez - Andando el tiempo - 2004, FLAC (tracks+.cue), lossless
Издатель (лейбл):
Треклист:
Gerardo Nuñez / Andando el tiempo
Жанр: Flamenco Jazz, ACT Music
Страна-производитель диска: Germany
Год издания: 2004
Издатель (лейбл): ACT Music
Номер по каталогу: ACT 9426-2
Аудиокодек: FLAC (*.flac)
Тип рипа: tracks+.cue
Битрейт аудио: lossless
Продолжительность: 49:30
Источник (релизер): Max Monteiro
Наличие сканов в содержимом раздачи: front + back
Треклист:
01. La habana a oscuras 5:21
02. Trasgo 1:15
03. Plaza de los Plateros 5:10
04. Templo del Lucero 7:03
05. Nocturno 3:02
06. Compas de amistad 5:47
07. Yerma 4:41
08. Siempre es tarde 4:10
09. Soleá de la luna coja 5:04
10. Canícula 4:23
11. Ïmpetu 3:34
Music composed by Gerardo Nuñez except track 11 composed by Mario Escudero.
Recorded at « El Gallo azul studio ».
Gerardo Nuñez – Guitar
Special guests:
Paolo Fresu – Trumpet
Perico Sambeat – Sax
Mariano Diaz – Piano
Musicians:
Angel Sanchez Gonzalez « Cepillo » – Percussions and Palmas
Carmen Cortes – Palmas
Noah Shaye – Drums (track 10)
Moy Natenzon – Drums (track 1)
Juanito el Cubano – Congas (track 1)
Isabel Nuñez – Ambientes
Pablo Martin – Double Bass (tracks 3, 6, 8, 10)
Martin – Electric Bass (tracks 3, 6)
Pepe el Habanero – Electric Bass (track 1)
 
Лог создания рипа
Exact Audio Copy V1.0 beta 3 from 29. August 2011
EAC extraction logfile from 8. September 2013, 13:19
Gerardo Nuñez / Andando el tiempo
Used drive : SlimtypeeNAU508 5 Adapter: 1 ID: 0
Read mode : Secure
Utilize accurate stream : Yes
Defeat audio cache : Yes
Make use of C2 pointers : No
Read offset correction : 6
Overread into Lead-In and Lead-Out : No
Fill up missing offset samples with silence : Yes
Delete leading and trailing silent blocks : No
Null samples used in CRC calculations : Yes
Used interface : Native Win32 interface for Win NT & 2000
Gap handling : Appended to previous track
Used output format : User Defined Encoder
Selected bitrate : 768 kBit/s
Quality : High
Add ID3 tag : No
Command line compressor : C:\Program Files (x86)\Exact Audio Copy\Flac\flac.exe
Additional command line options : -8 -V -T "ARTIST=%artist%" -T "TITLE=%title%" -T "ALBUM=%albumtitle%" -T "DATE=%year%" -T "TRACKNUMBER=%tracknr%" -T "GENRE=%genre%" -T "PERFORMER=%albuminterpret%" -T "COMPOSER=%composer%" %haslyrics%--tag-from-file=LYRICS="%lyricsfile%"%haslyrics% -T "ALBUMARTIST=%albumartist%" -T "DISCNUMBER=%cdnumber%" -T "TOTALDISCS=%totalcds%" -T "TOTALTRACKS=%numtracks%" -T "COMMENT=%comment%" %source% -o %dest%
TOC of the extracted CD
Track | Start | Length | Start sector | End sector
---------------------------------------------------------
1 | 0:00.00 | 5:20.43 | 0 | 24042
2 | 5:20.43 | 1:15.19 | 24043 | 29686
3 | 6:35.62 | 5:10.19 | 29687 | 52955
4 | 11:46.06 | 7:03.10 | 52956 | 84690
5 | 18:49.16 | 3:02.28 | 84691 | 98368
6 | 21:51.44 | 5:47.07 | 98369 | 124400
7 | 27:38.51 | 4:41.33 | 124401 | 145508
8 | 32:20.09 | 4:09.41 | 145509 | 164224
9 | 36:29.50 | 5:04.03 | 164225 | 187027
10 | 41:33.53 | 4:22.68 | 187028 | 206745
11 | 45:56.46 | 3:33.48 | 206746 | 222768
Track 1
Filename C:\EAC rips\01 - La habana a oscuras.wav
Pre-gap length 0:00:02.00
Peak level 98.8 %
Extraction speed 2.2 X
Track quality 100.0 %
Test CRC 8FB85A08
Copy CRC 8FB85A08
Accurately ripped (confidence 6) [47215F88] (AR v2)
Copy OK
Track 2
Filename C:\EAC rips\02 - Trasgo.wav
Pre-gap length 0:00:02.22
Peak level 98.8 %
Extraction speed 1.6 X
Track quality 100.0 %
Test CRC F49FCDF4
Copy CRC F49FCDF4
Accurately ripped (confidence 6) [D13F2877] (AR v2)
Copy OK
Track 3
Filename C:\EAC rips\03 - Plaza de los Plateros.wav
Pre-gap length 0:00:00.50
Peak level 98.8 %
Extraction speed 2.5 X
Track quality 100.0 %
Test CRC A67D81ED
Copy CRC A67D81ED
Accurately ripped (confidence 6) [46AF38A0] (AR v2)
Copy OK
Track 4
Filename C:\EAC rips\04 - Templo del Lucero.wav
Pre-gap length 0:00:03.08
Peak level 98.8 %
Extraction speed 3.0 X
Track quality 100.0 %
Test CRC 60B8C394
Copy CRC 60B8C394
Accurately ripped (confidence 6) [D53816AF] (AR v2)
Copy OK
Track 5
Filename C:\EAC rips\05 - Nocturno.wav
Pre-gap length 0:00:02.61
Peak level 98.3 %
Extraction speed 2.9 X
Track quality 100.0 %
Test CRC AD9375CA
Copy CRC AD9375CA
Accurately ripped (confidence 6) [9FD9F3EB] (AR v2)
Copy OK
Track 6
Filename C:\EAC rips\06 - Compas de amistad.wav
Pre-gap length 0:00:01.73
Peak level 98.8 %
Extraction speed 3.3 X
Track quality 100.0 %
Test CRC 055EB1FA
Copy CRC 055EB1FA
Accurately ripped (confidence 6) [379990A0] (AR v2)
Copy OK
Track 7
Filename C:\EAC rips\07 - Yerma.wav
Pre-gap length 0:00:02.39
Peak level 90.8 %
Extraction speed 3.4 X
Track quality 100.0 %
Test CRC 911DA9F4
Copy CRC 911DA9F4
Accurately ripped (confidence 6) [0E1E438E] (AR v2)
Copy OK
Track 8
Filename C:\EAC rips\08 - Siempre es tarde.wav
Peak level 98.8 %
Extraction speed 3.1 X
Track quality 100.0 %
Test CRC D545ACDE
Copy CRC D545ACDE
Accurately ripped (confidence 6) [3470639B] (AR v2)
Copy OK
Track 9
Filename C:\EAC rips\09 - Soleá de la luna coja.wav
Pre-gap length 0:00:02.43
Peak level 98.8 %
Extraction speed 3.6 X
Track quality 100.0 %
Test CRC FE48A921
Copy CRC FE48A921
Accurately ripped (confidence 6) [BC8D9600] (AR v2)
Copy OK
Track 10
Filename C:\EAC rips\10 - Canícula.wav
Pre-gap length 0:00:02.09
Peak level 98.8 %
Extraction speed 3.2 X
Track quality 99.9 %
Test CRC 427BA5D1
Copy CRC 427BA5D1
Accurately ripped (confidence 6) [813CC330] (AR v2)
Copy OK
Track 11
Filename C:\EAC rips\11 - Ïmpetu.wav
Pre-gap length 0:00:02.45
Peak level 84.8 %
Extraction speed 3.9 X
Track quality 100.0 %
Test CRC 7DBBE0E5
Copy CRC 7DBBE0E5
Accurately ripped (confidence 6) [8B262980] (AR v2)
Copy OK
All tracks accurately ripped
No errors occurred
End of status report
---- CUETools DB Plugin V2.1.4
[CTDB TOCID: KXerj3sTwyOvqiH2G7qFF0U0pwk-] found
Submit result: KXerj3sTwyOvqiH2G7qFF0U0pwk- has been confirmed
Track | CTDB Status
1 | (6/7) Accurately ripped, or (1/7) differs in 13 samples @00:03:74,00:54:58
2 | (7/7) Accurately ripped
3 | (7/7) Accurately ripped
4 | (7/7) Accurately ripped
5 | (7/7) Accurately ripped
6 | (6/7) Accurately ripped, or (1/7) differs in 4 samples @05:21:21
7 | (7/7) Accurately ripped
8 | (6/7) Accurately ripped, or (1/7) differs in 5 samples @03:24:12
9 | (6/7) Accurately ripped, or (1/7) differs in 3 samples @02:18:64
10 | (6/7) Accurately ripped, or (1/7) differs in 13 samples @03:42:74-03:43:00,04:15:29
11 | (6/7) Accurately ripped, or (1/7) differs in 11 samples @01:36:13,02:33:52
==== Log checksum BFDC9B14D2ED8AF2D89674D40F8DD9F37FCD32627B1664433EF61E8460F106C1 ====
 
Содержание индексной карты (.CUE)
REM GENRE "Flamenco / Jazz"
REM DATE 2004
REM DISCID 8D0B9A0B
REM COMMENT "ExactAudioCopy v1.0b3"
PERFORMER "Gerardo Nuñez"
TITLE "Andando el tiempo"
FILE "01 - La habana a oscuras.wav" WAVE
TRACK 01 AUDIO
TITLE "La habana a oscuras"
PERFORMER "Gerardo Nuñez"
ISRC DEA890400091
INDEX 01 00:00:00
TRACK 02 AUDIO
TITLE "Trasgo"
PERFORMER "Gerardo Nuñez"
ISRC DEA890400092
INDEX 00 05:18:21
FILE "02 - Trasgo.wav" WAVE
INDEX 01 00:00:00
TRACK 03 AUDIO
TITLE "Plaza de los Plateros"
PERFORMER "Gerardo Nuñez"
ISRC DEA890400093
INDEX 00 01:14:44
FILE "03 - Plaza de los Plateros.wav" WAVE
INDEX 01 00:00:00
TRACK 04 AUDIO
TITLE "Templo del Lucero"
PERFORMER "Gerardo Nuñez"
ISRC DEA890400094
INDEX 00 05:07:11
FILE "04 - Templo del Lucero.wav" WAVE
INDEX 01 00:00:00
TRACK 05 AUDIO
TITLE "Nocturno"
PERFORMER "Gerardo Nuñez"
ISRC DEA890400095
INDEX 00 07:00:24
FILE "05 - Nocturno.wav" WAVE
INDEX 01 00:00:00
TRACK 06 AUDIO
TITLE "Compas de amistad"
PERFORMER "Gerardo Nuñez"
ISRC DEA890400096
INDEX 00 03:00:30
FILE "06 - Compas de amistad.wav" WAVE
INDEX 01 00:00:00
TRACK 07 AUDIO
TITLE "Yerma"
PERFORMER "Gerardo Nuñez"
ISRC DEA890400097
INDEX 00 05:44:43
FILE "07 - Yerma.wav" WAVE
INDEX 01 00:00:00
FILE "08 - Siempre es tarde.wav" WAVE
TRACK 08 AUDIO
TITLE "Siempre es tarde"
PERFORMER "Gerardo Nuñez"
ISRC DEA890400098
INDEX 01 00:00:00
TRACK 09 AUDIO
TITLE "Soleá de la luna coja"
PERFORMER "Gerardo Nuñez"
ISRC DEA890400099
INDEX 00 04:06:73
FILE "09 - Soleá de la luna coja.wav" WAVE
INDEX 01 00:00:00
TRACK 10 AUDIO
TITLE "Canícula"
PERFORMER "Gerardo Nuñez"
ISRC DEA890400100
INDEX 00 05:01:69
FILE "10 - Canícula.wav" WAVE
INDEX 01 00:00:00
TRACK 11 AUDIO
TITLE "Ïmpetu"
PERFORMER "Gerardo Nuñez"
ISRC DEA890400101
INDEX 00 04:20:23
FILE "11 - Ïmpetu.wav" WAVE
INDEX 01 00:00:00
12:12
317
Нет комментариев. Ваш будет первым!