Поиск

(African Jazz, ACT Music) Soriba Kouyate - Live in Montreux - 2003, FLAC (tracks+.cue), lossless

(African Jazz, ACT Music) Soriba Kouyate - Live in Montreux - 2003, FLAC (tracks+.cue), lossless
Издатель (лейбл):
Треклист:
Soriba Kouyaté / Live in Montreux
Жанр: African Jazz, ACT Music
Страна-производитель диска: Germany
Год издания: 2003
Издатель (лейбл): ACT Music
Номер по каталогу: ACT 9414-2
Аудиокодек: FLAC (*.flac)
Тип рипа: tracks+.cue
Битрейт аудио: lossless
Продолжительность: 57:49
Источник (релизер): Max Monteiro
Наличие сканов в содержимом раздачи: нет
Треклист:
1. Diarabi (trad. Guinée, arr. by Philippe Gaillot) 6:24
2. Mariama (trad. Casamance, arr. by Philippe Gaillot) 6:33
3. All Blues (Miles Davis) 7:27
4. Deli Guelema (trad. Mali, arr. by Philippe Gaillot) 5:30
5. Autumn Leaves (J. Kosma / J. Mercer / J. Prévert) 8:41
6. Afrilude (Soriba Kouyaté) 4:08
7. St. Louis-Dakar (Soriba Kouyaté, arr. by Philippe Gaillot) 5:58
8. Kaïra (trad. Mali, arr. by Philippe Gaillot) 6:27
9. Bani (trad. Mandings, arr. by Philippe Gaillot) 6:42
Recorded « live » on July 16, 2000 during the ACT World Jazz Night, Montreux Jazz Festival, Switzerland.
Soriba Kouyaté – Kora
Matthieu Michel – Trumpet
Linley Marthe – Bass
Joël Allouche – Drums
 
Лог создания рипа
Exact Audio Copy V1.0 beta 3 from 29. August 2011
EAC extraction logfile from 21. September 2013, 16:40
Soriba Kouyaté / Live in Montreux
Used drive : SlimtypeeNAU508 5 Adapter: 1 ID: 0
Read mode : Secure
Utilize accurate stream : Yes
Defeat audio cache : Yes
Make use of C2 pointers : No
Read offset correction : 6
Overread into Lead-In and Lead-Out : No
Fill up missing offset samples with silence : Yes
Delete leading and trailing silent blocks : No
Null samples used in CRC calculations : Yes
Used interface : Native Win32 interface for Win NT & 2000
Gap handling : Appended to previous track
Used output format : User Defined Encoder
Selected bitrate : 768 kBit/s
Quality : High
Add ID3 tag : No
Command line compressor : C:\Program Files (x86)\Exact Audio Copy\Flac\flac.exe
Additional command line options : -8 -V -T "ARTIST=%artist%" -T "TITLE=%title%" -T "ALBUM=%albumtitle%" -T "DATE=%year%" -T "TRACKNUMBER=%tracknr%" -T "GENRE=%genre%" -T "PERFORMER=%albuminterpret%" -T "COMPOSER=%composer%" %haslyrics%--tag-from-file=LYRICS="%lyricsfile%"%haslyrics% -T "ALBUMARTIST=%albumartist%" -T "DISCNUMBER=%cdnumber%" -T "TOTALDISCS=%totalcds%" -T "TOTALTRACKS=%numtracks%" -T "COMMENT=%comment%" %source% -o %dest%
TOC of the extracted CD
Track | Start | Length | Start sector | End sector
---------------------------------------------------------
1 | 0:00.00 | 6:24.02 | 0 | 28801
2 | 6:24.02 | 6:33.21 | 28802 | 58297
3 | 12:57.23 | 7:26.44 | 58298 | 91791
4 | 20:23.67 | 5:29.69 | 91792 | 116535
5 | 25:53.61 | 8:41.04 | 116536 | 155614
6 | 34:34.65 | 4:07.52 | 155615 | 174191
7 | 38:42.42 | 5:57.54 | 174192 | 201020
8 | 44:40.21 | 6:26.68 | 201021 | 230038
9 | 51:07.14 | 6:41.38 | 230039 | 260151
Track 1
Filename C:\EAC rips\01 - Diarabi.wav
Pre-gap length 0:00:02.00
Peak level 98.8 %
Extraction speed 2.3 X
Track quality 100.0 %
Test CRC 80DC7D31
Copy CRC 80DC7D31
Accurately ripped (confidence 10) [9E6FE78A] (AR v2)
Copy OK
Track 2
Filename C:\EAC rips\02 - Mariama.wav
Peak level 98.8 %
Extraction speed 2.6 X
Track quality 100.0 %
Test CRC 10263AEA
Copy CRC 10263AEA
Accurately ripped (confidence 10) [0967BD7B] (AR v2)
Copy OK
Track 3
Filename C:\EAC rips\03 - All Blues.wav
Peak level 98.8 %
Extraction speed 3.0 X
Track quality 100.0 %
Test CRC 63C00CEF
Copy CRC 63C00CEF
Accurately ripped (confidence 10) [46054E36] (AR v2)
Copy OK
Track 4
Filename C:\EAC rips\04 - Deli Guelema.wav
Peak level 98.8 %
Extraction speed 3.2 X
Track quality 100.0 %
Test CRC F342EF3B
Copy CRC F342EF3B
Accurately ripped (confidence 10) [3D2103C1] (AR v2)
Copy OK
Track 5
Filename C:\EAC rips\05 - Autumn Leaves.wav
Peak level 98.8 %
Extraction speed 3.6 X
Track quality 100.0 %
Test CRC 21B1027B
Copy CRC 21B1027B
Accurately ripped (confidence 10) [257B1314] (AR v2)
Copy OK
Track 6
Filename C:\EAC rips\06 - Afrilude.wav
Peak level 98.8 %
Extraction speed 3.6 X
Track quality 100.0 %
Test CRC C71FBB37
Copy CRC C71FBB37
Accurately ripped (confidence 10) [07C846C4] (AR v2)
Copy OK
Track 7
Filename C:\EAC rips\07 - St. Louis-Dakar.wav
Peak level 98.8 %
Extraction speed 3.7 X
Track quality 100.0 %
Test CRC 404B408E
Copy CRC 404B408E
Accurately ripped (confidence 10) [101A6DEB] (AR v2)
Copy OK
Track 8
Filename C:\EAC rips\08 - Kaïra.wav
Peak level 98.8 %
Extraction speed 4.1 X
Track quality 100.0 %
Test CRC 682AC236
Copy CRC 682AC236
Accurately ripped (confidence 10) [76A52D68] (AR v2)
Copy OK
Track 9
Filename C:\EAC rips\09 - Bani.wav
Peak level 98.7 %
Extraction speed 4.3 X
Track quality 100.0 %
Test CRC E8555F7F
Copy CRC E8555F7F
Accurately ripped (confidence 10) [D8582858] (AR v2)
Copy OK
All tracks accurately ripped
No errors occurred
End of status report
---- CUETools DB Plugin V2.1.4
[CTDB TOCID: iUJaBwmKqGGxLwafaqOvI6.lfX0-] found
Submit result: iUJaBwmKqGGxLwafaqOvI6.lfX0- has been confirmed
Track | CTDB Status
1 | (1/1) Accurately ripped
2 | (1/1) Accurately ripped
3 | (1/1) Accurately ripped
4 | (1/1) Accurately ripped
5 | (1/1) Accurately ripped
6 | (1/1) Accurately ripped
7 | (1/1) Accurately ripped
8 | (1/1) Accurately ripped
9 | (1/1) Accurately ripped
==== Log checksum 63865A46CEDC1796469488891AF1629C48390CF07E9734147B1A9EBF2068D414 ====
 
Содержание индексной карты (.CUE)
REM GENRE Jazz
REM DATE 2003
REM DISCID 820D8C09
REM COMMENT "ExactAudioCopy v1.0b3"
PERFORMER "Soriba Kouyaté"
TITLE "Live in Montreux"
FILE "01 - Diarabi.wav" WAVE
TRACK 01 AUDIO
TITLE "Diarabi"
PERFORMER "Soriba Kouyaté"
ISRC DEA890300031
INDEX 01 00:00:00
FILE "02 - Mariama.wav" WAVE
TRACK 02 AUDIO
TITLE "Mariama"
PERFORMER "Soriba Kouyaté"
ISRC DEA890300032
INDEX 01 00:00:00
FILE "03 - All Blues.wav" WAVE
TRACK 03 AUDIO
TITLE "All Blues"
PERFORMER "Soriba Kouyaté"
ISRC DEA890300033
INDEX 01 00:00:00
FILE "04 - Deli Guelema.wav" WAVE
TRACK 04 AUDIO
TITLE "Deli Guelema"
PERFORMER "Soriba Kouyaté"
ISRC DEA890300034
INDEX 01 00:00:00
FILE "05 - Autumn Leaves.wav" WAVE
TRACK 05 AUDIO
TITLE "Autumn Leaves"
PERFORMER "Soriba Kouyaté"
ISRC DEA890300035
INDEX 01 00:00:00
FILE "06 - Afrilude.wav" WAVE
TRACK 06 AUDIO
TITLE "Afrilude"
PERFORMER "Soriba Kouyaté"
ISRC DEA890300036
INDEX 01 00:00:00
FILE "07 - St. Louis-Dakar.wav" WAVE
TRACK 07 AUDIO
TITLE "St. Louis-Dakar"
PERFORMER "Soriba Kouyaté"
ISRC DEA890300037
INDEX 01 00:00:00
FILE "08 - Kaïra.wav" WAVE
TRACK 08 AUDIO
TITLE "Kaïra"
PERFORMER "Soriba Kouyaté"
ISRC DEA890300038
INDEX 01 00:00:00
FILE "09 - Bani.wav" WAVE
TRACK 09 AUDIO
TITLE "Bani"
PERFORMER "Soriba Kouyaté"
ISRC DEA890300039
INDEX 01 00:00:00
13:13
274
Нет комментариев. Ваш будет первым!