Поиск

(Latin Jazz) Jazz On The Latin Side Allstars - Vol. 1 - 2000, FLAC (image+.cue), lossless

(Latin Jazz) Jazz On The Latin Side Allstars - Vol. 1 - 2000, FLAC (image+.cue), lossless
Треклист:
♦ Jazz On The Latin Side Allstars - Vol. 1 ♦
Жанр: Latin Jazz
Год издания: 2000
Издатель (лейбл): CuBop
Номер по каталогу: CBCD029
Аудиокодек: FLAC (*.flac)
Тип рипа: image+.cue
Битрейт аудио: lossless
Продолжительность: 00:52:43
Источник (релизер): dreadbull
Наличие сканов в содержимом раздачи: да
Треклист:
01. Intro [00:16]
02. Shortcuts [06:32]
03. Mujer Chicana [07:29]
04. Arabian Moods [09:36]
05. Mamacita Caravana [08:24]
06. In A Whisper [04:35]
07. Descarga Cachao [15:48]
 
Лог создания рипа
Exact Audio Copy V1.0 beta 3 from 29. August 2011
EAC extraction logfile from 30. May 2013, 17:05
Jazz On The Latin Side Allstars / Jazz On The Latin Side Vol.1
Used drive : ASUS DRW-22B2L Adapter: 0 ID: 0
Read mode : Secure
Utilize accurate stream : Yes
Defeat audio cache : Yes
Make use of C2 pointers : No
Read offset correction : 6
Overread into Lead-In and Lead-Out : No
Fill up missing offset samples with silence : Yes
Delete leading and trailing silent blocks : No
Null samples used in CRC calculations : Yes
Used interface : Native Win32 interface for Win NT & 2000
Used output format : User Defined Encoder
Selected bitrate : 128 kBit/s
Quality : High
Add ID3 tag : Yes
Command line compressor : C:\Program Files\FLAC\flac.exe
Additional command line options : -8 -V -T "ARTIST=%artist%" -T "TITLE=%title%" -T "ALBUM=%albumtitle%" -T "DATE=%year%" -T "TRACKNUMBER=%tracknr%" -T "GENRE=%genre%" -T "PERFORMER=%albuminterpret%" -T "COMPOSER=%composer%" %haslyrics%--tag-from-file=LYRICS="%lyricsfile%"%haslyrics% -T "ALBUMARTIST=%albumartist%" -T "DISCNUMBER=%cdnumber%" -T "TOTALDISCS=%totalcds%" -T "TOTALTRACKS=%numtracks%" -T "COMMENT=%comment%" %source% -o %dest%
TOC of the extracted CD
Track | Start | Length | Start sector | End sector
---------------------------------------------------------
1 | 0:00.00 | 0:16.06 | 0 | 1205
2 | 0:16.06 | 6:32.31 | 1206 | 30636
3 | 6:48.37 | 7:29.02 | 30637 | 64313
4 | 14:17.39 | 9:36.61 | 64314 | 107574
5 | 23:54.25 | 8:24.45 | 107575 | 145419
6 | 32:18.70 | 4:35.31 | 145420 | 166075
7 | 36:54.26 | 15:48.56 | 166076 | 237231
Range status and errors
Selected range
Filename F:\Donkey Files\Jazz On The Latin Side Allstars Vol.1 (2000, CuBop) [eac-flac-scans] byDrBull\Jazz On The Latin Side Vol.1.wav
Peak level 97.0 %
Extraction speed 3.1 X
Range quality 100.0 %
Test CRC 37B4BF48
Copy CRC 37B4BF48
Copy OK
No errors occurred
AccurateRip summary
Track 1 accurately ripped (confidence 4) [A637150D] (AR v1)
Track 2 accurately ripped (confidence 5) [F375A2BC] (AR v1)
Track 3 accurately ripped (confidence 5) [B56065C4] (AR v1)
Track 4 accurately ripped (confidence 5) [549EE77B] (AR v1)
Track 5 accurately ripped (confidence 5) [B88E2316] (AR v1)
Track 6 accurately ripped (confidence 5) [96FA6B79] (AR v1)
Track 7 accurately ripped (confidence 5) [846408EF] (AR v1)
All tracks accurately ripped
End of status report
==== Log checksum 1E1B8A273A3AF4C0076B25DB9A3DEDDDA58D8C6AA4049FD020E775699AEA1E99 ====
 
Содержание индексной карты (.CUE)
REM GENRE "Latin Jazz"
REM DISCID 4D0C5B07
REM COMMENT "ExactAudioCopy v1.0b3"
PERFORMER "Jazz On The Latin Side Allstars"
TITLE "Jazz On The Latin Side Vol.1"
FILE "Jazz On The Latin Side Vol.1.flac" WAVE
TRACK 01 AUDIO
TITLE "Intro"
PERFORMER "Jazz On The Latin Side Allstars"
INDEX 01 00:00:00
TRACK 02 AUDIO
TITLE "Shortcuts"
PERFORMER "Jazz On The Latin Side Allstars"
INDEX 01 00:16:06
TRACK 03 AUDIO
TITLE "Mujer Chicana"
PERFORMER "Jazz On The Latin Side Allstars"
INDEX 00 06:45:67
INDEX 01 06:48:37
TRACK 04 AUDIO
TITLE "Arabian Moods"
PERFORMER "Jazz On The Latin Side Allstars"
INDEX 00 14:14:69
INDEX 01 14:17:39
TRACK 05 AUDIO
TITLE "Mamacita Caravana"
PERFORMER "Jazz On The Latin Side Allstars"
INDEX 00 23:51:55
INDEX 01 23:54:25
TRACK 06 AUDIO
TITLE "In A Whisper"
PERFORMER "Jazz On The Latin Side Allstars"
INDEX 00 32:16:25
INDEX 01 32:18:70
TRACK 07 AUDIO
TITLE "Descarga Cachao"
PERFORMER "Jazz On The Latin Side Allstars"
INDEX 00 36:51:56
INDEX 01 36:54:26
 
Состав
Otmaro Rúiz - piano (#2,4,5,7);
Rene Camacho - bass (#2,4-6,7);
Tiki Pasillas - timbales (#2,4,5), clave (#4,7), chekeré (#4), coro (#7);
Michito Sánchez - congas (#2), güiro (#3);
José de León - bongós (#2,5,7), timbales (#3), congas (#4);
Cougar Estrada - drums (#2,3);
Francisco Torres - trombone (#2-4,7), arranger (#2,4);
Sal Cracchiolo - trumpet (#2,4,5,7), solo on #7;
Robert Incelli - alto sax (#2,4,5,7), arranger (#5);
Justo Almario - tenor (#2,4-7) & soprano (#7) sax;
Joe Rotundi - piano (#3,6,7), arranger (#3,6);
Francisco Aguabella - congas (#3,6) solo on #4 ,7;
Al McKibbon - bass (#3);
Danilo Lozano - flute (#3,5);
Susie Hansen - violin (#3,5,7);
Arturo Velasco - trombone (#3-5,7), solo on #3;
Asdru Sierra - coro (#3,5,7);
Freddie Crespo - coro (#3,5,7);
Alex Acuña - drums (#4-7);
Ramón Flores - trumpet (#4-7), solo on #4;
Luis Conte - congas (#5);
Juan Carlos Quintero - guitar (#5,7);
José "Papo" Rodríguez - bongós (#6,7);
Poncho Sánchez - arranger, maracas & coro (#7);
Ramón Banda - timbales (#7).Rec. live at B.B. King's, Universal City Walk, CA, on Jan 7, 2000.
11:21
260
Нет комментариев. Ваш будет первым!