Поиск

(Avant-Garde, Klezmer Jazz) Masada - Zayin [Seven] - 1998, FLAC (tracks+.cue), lossless

(Avant-Garde, Klezmer Jazz) Masada - Zayin [Seven] - 1998, FLAC (tracks+.cue), lossless
Треклист:
Masada / Zayin [Seven]
Жанр: Avant-Garde, Klezmer Jazz
Страна-производитель диска: Japan
Год издания: 1998
Издатель (лейбл): DIW Records
Номер по каталогу: DIW-915
Аудиокодек: FLAC (*.flac)
Тип рипа: tracks+.cue
Битрейт аудио: lossless
Продолжительность: 1:00:38
Источник (релизер): Max Monteiro
Наличие сканов в содержимом раздачи: нет
Треклист:
01. Shevet 7:59
02. Hath-arob 3:25
03. Mahshav 6:17
04. Shamor 5:10
05. Bacharach 1:25
06. Otiot 3:27
07. Nevuah 8:22
08. Kedem 9:56
09. Zemer 2:14
10. Evel 5:35
11. Tekufah 6:49
All compositions by John Zorn.
Recorded at Power Station, NYC on April 16, 1996.
John Zorn – Alto Sax
Dave Douglas – Trumpet
Greg Cohen – Bass
Joey Baron – Drums
 
Лог создания рипа
Exact Audio Copy V1.0 beta 3 from 29. August 2011
EAC extraction logfile from 12. June 2013, 19:07
Masada / Zayin
Used drive : SlimtypeeNAU508 5 Adapter: 1 ID: 0
Read mode : Secure
Utilize accurate stream : Yes
Defeat audio cache : Yes
Make use of C2 pointers : No
Read offset correction : 6
Overread into Lead-In and Lead-Out : No
Fill up missing offset samples with silence : Yes
Delete leading and trailing silent blocks : No
Null samples used in CRC calculations : Yes
Used interface : Native Win32 interface for Win NT & 2000
Gap handling : Appended to previous track
Used output format : User Defined Encoder
Selected bitrate : 768 kBit/s
Quality : High
Add ID3 tag : No
Command line compressor : C:\Program Files (x86)\Exact Audio Copy\Flac\flac.exe
Additional command line options : -8 -V -T "ARTIST=%artist%" -T "TITLE=%title%" -T "ALBUM=%albumtitle%" -T "DATE=%year%" -T "TRACKNUMBER=%tracknr%" -T "GENRE=%genre%" -T "PERFORMER=%albuminterpret%" -T "COMPOSER=%composer%" %haslyrics%--tag-from-file=LYRICS="%lyricsfile%"%haslyrics% -T "ALBUMARTIST=%albumartist%" -T "DISCNUMBER=%cdnumber%" -T "TOTALDISCS=%totalcds%" -T "TOTALTRACKS=%numtracks%" -T "COMMENT=%comment%" %source% -o %dest%
TOC of the extracted CD
Track | Start | Length | Start sector | End sector
---------------------------------------------------------
1 | 0:00.00 | 7:58.55 | 0 | 35904
2 | 7:58.55 | 3:24.50 | 35905 | 51254
3 | 11:23.30 | 6:16.67 | 51255 | 79521
4 | 17:40.22 | 5:09.50 | 79522 | 102746
5 | 22:49.72 | 1:24.40 | 102747 | 109086
6 | 24:14.37 | 3:27.13 | 109087 | 124624
7 | 27:41.50 | 8:22.17 | 124625 | 162291
8 | 36:03.67 | 9:55.73 | 162292 | 206989
9 | 45:59.65 | 2:14.12 | 206990 | 217051
10 | 48:14.02 | 5:35.00 | 217052 | 242176
11 | 53:49.02 | 6:48.48 | 242177 | 272824
Track 1
Filename C:\EAC rips\01 - Shevet.wav
Pre-gap length 0:00:02.00
Peak level 94.4 %
Extraction speed 1.1 X
Track quality 99.9 %
Test CRC BAB50355
Copy CRC BAB50355
Accurately ripped (confidence 12) [E7AC0B34] (AR v1)
Copy OK
Track 2
Filename C:\EAC rips\02 - Hath-arob.wav
Peak level 94.4 %
Extraction speed 1.2 X
Track quality 100.0 %
Test CRC 6B741148
Copy CRC 6B741148
Accurately ripped (confidence 12) [E76F6226] (AR v1)
Copy OK
Track 3
Filename C:\EAC rips\03 - Mahshav.wav
Peak level 94.4 %
Extraction speed 1.4 X
Track quality 100.0 %
Test CRC DB282738
Copy CRC DB282738
Accurately ripped (confidence 12) [002FC150] (AR v1)
Copy OK
Track 4
Filename C:\EAC rips\04 - Shamor.wav
Peak level 94.4 %
Extraction speed 1.5 X
Track quality 100.0 %
Test CRC 59D65F3C
Copy CRC 59D65F3C
Accurately ripped (confidence 12) [FD505063] (AR v1)
Copy OK
Track 5
Filename C:\EAC rips\05 - Bacharach.wav
Peak level 94.3 %
Extraction speed 1.2 X
Track quality 100.0 %
Test CRC 324171A1
Copy CRC 324171A1
Accurately ripped (confidence 12) [E47A9419] (AR v1)
Copy OK
Track 6
Filename C:\EAC rips\06 - Otiot.wav
Peak level 56.4 %
Extraction speed 1.4 X
Track quality 99.9 %
Test CRC 59E1A240
Copy CRC 59E1A240
Accurately ripped (confidence 12) [995C9198] (AR v1)
Copy OK
Track 7
Filename C:\EAC rips\07 - Nevuah.wav
Peak level 94.4 %
Extraction speed 1.9 X
Track quality 100.0 %
Test CRC 190333C0
Copy CRC 190333C0
Accurately ripped (confidence 12) [2B5353F7] (AR v1)
Copy OK
Track 8
Filename C:\EAC rips\08 - Kedem.wav
Peak level 90.0 %
Extraction speed 2.0 X
Track quality 100.0 %
Test CRC 8A3E7269
Copy CRC 8A3E7269
Accurately ripped (confidence 12) [FD76B43B] (AR v1)
Copy OK
Track 9
Filename C:\EAC rips\09 - Zemer.wav
Peak level 94.4 %
Extraction speed 1.8 X
Track quality 100.0 %
Test CRC 6CCA1FE0
Copy CRC 6CCA1FE0
Accurately ripped (confidence 12) [A92F3173] (AR v1)
Copy OK
Track 10
Filename C:\EAC rips\10 - Evel.wav
Peak level 78.6 %
Extraction speed 1.9 X
Track quality 99.9 %
Test CRC F2421264
Copy CRC F2421264
Accurately ripped (confidence 12) [242911B6] (AR v1)
Copy OK
Track 11
Filename C:\EAC rips\11 - Tekufah.wav
Peak level 94.4 %
Extraction speed 2.2 X
Track quality 100.0 %
Test CRC 263C0171
Copy CRC 263C0171
Accurately ripped (confidence 12) [BCFB7AA8] (AR v1)
Copy OK
All tracks accurately ripped
No errors occurred
End of status report
---- CUETools DB Plugin V2.1.4
[CTDB TOCID: b9NUVeyhUAoJ2AQdc8PIx13rNAc-] found
Submit result: b9NUVeyhUAoJ2AQdc8PIx13rNAc- has been confirmed
Track | CTDB Status
1 | (3/3) Accurately ripped
2 | (3/3) Accurately ripped
3 | (3/3) Accurately ripped
4 | (3/3) Accurately ripped
5 | (3/3) Accurately ripped
6 | (3/3) Accurately ripped
7 | (3/3) Accurately ripped
8 | (3/3) Accurately ripped
9 | (3/3) Accurately ripped
10 | (3/3) Accurately ripped
11 | (3/3) Accurately ripped
==== Log checksum 6BDD2007A70A0159FF872F2B71CBDB0D39DD95F4A47A9841FF9854663C6C35EC ====
 
Содержание индексной карты (.CUE)
REM GENRE Jazz
REM DATE 1996
REM DISCID 960E350B
REM COMMENT "ExactAudioCopy v1.0b3"
PERFORMER "Masada"
TITLE "Zayin"
FILE "01 - Shevet.wav" WAVE
TRACK 01 AUDIO
TITLE "Shevet"
PERFORMER "Masada"
INDEX 01 00:00:00
FILE "02 - Hath-arob.wav" WAVE
TRACK 02 AUDIO
TITLE "Hath-arob"
PERFORMER "Masada"
INDEX 01 00:00:00
FILE "03 - Mahshav.wav" WAVE
TRACK 03 AUDIO
TITLE "Mahshav"
PERFORMER "Masada"
INDEX 01 00:00:00
FILE "04 - Shamor.wav" WAVE
TRACK 04 AUDIO
TITLE "Shamor"
PERFORMER "Masada"
INDEX 01 00:00:00
FILE "05 - Bacharach.wav" WAVE
TRACK 05 AUDIO
TITLE "Bacharach"
PERFORMER "Masada"
INDEX 01 00:00:00
FILE "06 - Otiot.wav" WAVE
TRACK 06 AUDIO
TITLE "Otiot"
PERFORMER "Masada"
INDEX 01 00:00:00
FILE "07 - Nevuah.wav" WAVE
TRACK 07 AUDIO
TITLE "Nevuah"
PERFORMER "Masada"
INDEX 01 00:00:00
FILE "08 - Kedem.wav" WAVE
TRACK 08 AUDIO
TITLE "Kedem"
PERFORMER "Masada"
INDEX 01 00:00:00
FILE "09 - Zemer.wav" WAVE
TRACK 09 AUDIO
TITLE "Zemer"
PERFORMER "Masada"
INDEX 01 00:00:00
FILE "10 - Evel.wav" WAVE
TRACK 10 AUDIO
TITLE "Evel"
PERFORMER "Masada"
INDEX 01 00:00:00
FILE "11 - Tekufah.wav" WAVE
TRACK 11 AUDIO
TITLE "Tekufah"
PERFORMER "Masada"
INDEX 01 00:00:00
11:22
245
Нет комментариев. Ваш будет первым!