Поиск

(Avant-Garde, Klezmer Jazz) Masada - Dalet [Four] - 1997 (1995), FLAC (tracks+.cue), lossless

(Avant-Garde, Klezmer Jazz) Masada - Dalet [Four] - 1997 (1995), FLAC (tracks+.cue), lossless
Треклист:
Masada / Dalet [Four]
Жанр: Avant-Garde, Klezmer Jazz
Страна-производитель диска: Japan
Год издания: 1997 (1995)
Издатель (лейбл): DIW Records
Номер по каталогу: DIW-923
Аудиокодек: FLAC (*.flac)
Тип рипа: tracks+.cue
Битрейт аудио: lossless
Продолжительность: 18:39
Источник (релизер): Max Monteiro
Наличие сканов в содержимом раздачи: да
Треклист:
1. Midbar 6:21
2. Mahlah 8:19
3. Zenan 3:59
All compositions by John Zorn.
Recorded at RPM, NYC on February 20, 1994.
John Zorn – Alto Sax
Dave Douglas – Trumpet
Greg Cohen – Bass
Joey Baron – Drums
 
Лог создания рипа
Exact Audio Copy V1.0 beta 3 from 29. August 2011
EAC extraction logfile from 11. June 2013, 15:22
Masada / Dalet
Used drive : SlimtypeeNAU508 5 Adapter: 1 ID: 0
Read mode : Secure
Utilize accurate stream : Yes
Defeat audio cache : Yes
Make use of C2 pointers : No
Read offset correction : 6
Overread into Lead-In and Lead-Out : No
Fill up missing offset samples with silence : Yes
Delete leading and trailing silent blocks : No
Null samples used in CRC calculations : Yes
Used interface : Native Win32 interface for Win NT & 2000
Gap handling : Appended to previous track
Used output format : User Defined Encoder
Selected bitrate : 768 kBit/s
Quality : High
Add ID3 tag : No
Command line compressor : C:\Program Files (x86)\Exact Audio Copy\Flac\flac.exe
Additional command line options : -8 -V -T "ARTIST=%artist%" -T "TITLE=%title%" -T "ALBUM=%albumtitle%" -T "DATE=%year%" -T "TRACKNUMBER=%tracknr%" -T "GENRE=%genre%" -T "PERFORMER=%albuminterpret%" -T "COMPOSER=%composer%" %haslyrics%--tag-from-file=LYRICS="%lyricsfile%"%haslyrics% -T "ALBUMARTIST=%albumartist%" -T "DISCNUMBER=%cdnumber%" -T "TOTALDISCS=%totalcds%" -T "TOTALTRACKS=%numtracks%" -T "COMMENT=%comment%" %source% -o %dest%
TOC of the extracted CD
Track | Start | Length | Start sector | End sector
---------------------------------------------------------
1 | 0:00.00 | 6:20.60 | 0 | 28559
2 | 6:20.60 | 8:19.02 | 28560 | 65986
3 | 14:39.62 | 3:58.60 | 65987 | 83896
Track 1
Filename C:\EAC rips\01 - Midbar.wav
Pre-gap length 0:00:02.00
Peak level 91.0 %
Extraction speed 1.2 X
Track quality 99.9 %
Test CRC 6621BC14
Copy CRC 6621BC14
Accurately ripped (confidence 2) [9BB1FD77] (AR v2)
Copy OK
Track 2
Filename C:\EAC rips\02 - Mahlah.wav
Peak level 58.6 %
Extraction speed 1.5 X
Track quality 100.0 %
Test CRC 5213311A
Copy CRC 5213311A
Accurately ripped (confidence 2) [F73DFB6B] (AR v2)
Copy OK
Track 3
Filename C:\EAC rips\03 - Zenan.wav
Peak level 99.1 %
Extraction speed 1.5 X
Track quality 100.0 %
Test CRC 0A52FF62
Copy CRC 0A52FF62
Accurately ripped (confidence 2) [D92EC304] (AR v2)
Copy OK
All tracks accurately ripped
No errors occurred
End of status report
---- CUETools DB Plugin V2.1.4
[CTDB TOCID: VygxCY1UOzRzJq0V8CABqergeTw-] found
Submit result: VygxCY1UOzRzJq0V8CABqergeTw- has been confirmed
Track | CTDB Status
1 | (3/3) Accurately ripped
2 | (2/3) Accurately ripped
3 | (2/3) Accurately ripped
==== Log checksum D0BED7B46300956AA94A59833923D4B8219EFA9EA0B57D5D988950E97707AD17 ====
 
Содержание индексной карты (.CUE)
REM GENRE Jazz
REM DATE 1995
REM DISCID 20045E03
REM COMMENT "ExactAudioCopy v1.0b3"
PERFORMER "Masada"
TITLE "Dalet"
FILE "01 - Midbar.wav" WAVE
TRACK 01 AUDIO
TITLE "Midbar"
PERFORMER "Masada"
INDEX 01 00:00:00
FILE "02 - Mahlah.wav" WAVE
TRACK 02 AUDIO
TITLE "Mahlah"
PERFORMER "Masada"
INDEX 01 00:00:00
FILE "03 - Zenan.wav" WAVE
TRACK 03 AUDIO
TITLE "Zenan"
PERFORMER "Masada"
INDEX 01 00:00:00
12:20
264
Нет комментариев. Ваш будет первым!