Поиск

(Latin Jazz) Herbie Mann-Chick Corea - The Complete Latin Band Sessions {GAMBIT 69278} - 2007, FLAC (tracks+.cue), lossless

Треклист:
Herbie Mann-Chick Corea - The Complete Latin Band Sessions {GAMBIT 69278}
Жанр: Latin Jazz
Год выпуска диска: 2007
Производитель диска: USA
Аудио кодек: FLAC
Тип рипа: tracks+.cue
Битрейт аудио: lossless
Продолжительность: 1:07:30 & 1:02:24
Сканы: присутствуют, высокого разрешения
Источник: торрент, с разрешения аплоудера S...
Трэклист:
Disc 1
01. Away From The Crowd
02. Motherless Child
03. In Escambrun
04. The Young Turks
05. You're Gonna Make It With Me
06. Mushi Mushi
07. Patato
08. Stolen Moments
09. Comin' Home Baby
Disc 2
01. Let's Boom Chittiy Boom
02. What'D I Say
03. Senor Blues
04. Bijou
05. Jungle Fantasy
06. Watermelon Man
07. Interlude
08. The Jive Samba
09. Ave Maria Morena
10. Manteca
11. It Isn't Enough
12. My First Love Song
13. A Wonderful Day Like Today
14. Who Can I Turn To
15. The Joker
16. Feeling Good
17. Look At That Face
Доп. информация: Полное собрание записей флейтиста Herbie Mann вместе с Chick Corea: Monday Night at the Village Gate, Standing Ovation at Newport, Latin Mann - Afro to Bossa to Blues and The Roar of the Greasepaint the Smell of the Crowd.
The Latin Jazz Band:
Herbie Mann - Fflute
Chick Corea - Piano
Dave Pike - Vvibe
Carlos “Patato” Valdes - Congas
Логи:
Disс 1:
 
EAC
Exact Audio Copy V0.99 prebeta 4 from 23. January 2008
EAC extraction logfile from 11. November 2008, 20:00
Herbie Mann-Chick Corea / The Complete Latin Band Sessions Cd1
Used drive : PLEXTOR CD-R PREMIUM2 Adapter: 1 ID: 1
Read mode : Secure
Utilize accurate stream : Yes
Defeat audio cache : Yes
Make use of C2 pointers : No
Read offset correction : 30
Overread into Lead-In and Lead-Out : No
Fill up missing offset samples with silence : Yes
Delete leading and trailing silent blocks : No
Null samples used in CRC calculations : Yes
Used interface : Installed external ASPI interface
Gap handling : Appended to previous track
Used output format : User Defined Encoder
Selected bitrate : 32 kBit/s
Quality : High
Add ID3 tag : No
Command line compressor : C:\Programmi\FLAC\flac.exe
Additional command line options : -8 -V -T "ARTIST=%a" -T "TITLE=%t" -T "ALBUM=%g" -T "DATE=%y" -T "TRACKNUMBER=%n" -T "GENRE=%m" -T "COMMENT=EAC FLAC -8" %s
TOC of the extracted CD
Track | Start | Length | Start sector | End sector
---------------------------------------------------------
1 | 0:00.00 | 6:41.00 | 0 | 30074
2 | 6:41.00 | 8:03.00 | 30075 | 66299
3 | 14:44.00 | 5:41.00 | 66300 | 91874
4 | 20:25.00 | 5:25.00 | 91875 | 116249
5 | 25:50.00 | 6:49.00 | 116250 | 146924
6 | 32:39.00 | 6:03.00 | 146925 | 174149
7 | 38:42.00 | 8:21.00 | 174150 | 211724
8 | 47:03.00 | 9:35.00 | 211725 | 254849
9 | 56:38.00 | 10:52.00 | 254850 | 303749
Track 1
Filename C:\My Rip\01 - Away From The Crowd.wav
Pre-gap length 0:00:02.00
Peak level 96.6 %
Track quality 100.0 %
Test CRC 65B35F08
Copy CRC 65B35F08
Track not present in AccurateRip database
Copy OK
Track 2
Filename C:\My Rip\02 - Motherless Child.wav
Pre-gap length 0:00:03.00
Peak level 96.6 %
Track quality 100.0 %
Test CRC C1059770
Copy CRC C1059770
Track not present in AccurateRip database
Copy OK
Track 3
Filename C:\My Rip\03 - In Escambrun.wav
Pre-gap length 0:00:03.00
Peak level 96.6 %
Track quality 100.0 %
Test CRC DD270052
Copy CRC DD270052
Track not present in AccurateRip database
Copy OK
Track 4
Filename C:\My Rip\04 - The Young Turks.wav
Pre-gap length 0:00:03.00
Peak level 96.6 %
Track quality 100.0 %
Test CRC 00CBDF33
Copy CRC 00CBDF33
Track not present in AccurateRip database
Copy OK
Track 5
Filename C:\My Rip\05 - You're Gonna Make It With Me.wav
Pre-gap length 0:00:03.00
Peak level 96.6 %
Track quality 100.0 %
Test CRC 80931963
Copy CRC 80931963
Track not present in AccurateRip database
Copy OK
Track 6
Filename C:\My Rip\06 - Mushi Mushi.wav
Pre-gap length 0:00:03.00
Peak level 96.6 %
Track quality 100.0 %
Test CRC 06BDF60B
Copy CRC 06BDF60B
Track not present in AccurateRip database
Copy OK
Track 7
Filename C:\My Rip\07 - Patato.wav
Pre-gap length 0:00:03.00
Peak level 96.6 %
Track quality 100.0 %
Test CRC EA577E28
Copy CRC EA577E28
Track not present in AccurateRip database
Copy OK
Track 8
Filename C:\My Rip\08 - Stolen Moments.wav
Pre-gap length 0:00:03.00
Peak level 96.6 %
Track quality 100.0 %
Test CRC 63189694
Copy CRC 63189694
Track not present in AccurateRip database
Copy OK
Track 9
Filename C:\My Rip\09 - Comin' Home Baby.wav
Pre-gap length 0:00:03.00
Peak level 96.6 %
Track quality 100.0 %
Test CRC 69DD6FEB
Copy CRC 69DD6FEB
Track not present in AccurateRip database
Copy OK
None of the tracks are present in the AccurateRip database
No errors occurred
End of status report
 
auCDtest
auCDtect: CD records authenticity detector, version 0.8.2
Copyright (c) 2004 Oleg Berngardt. All rights reserved.
Copyright (c) 2004 Alexander Djourik. All rights reserved.
------------------------------------------------------------
Processing file: [01 - Away From The Crowd.wav]
------------------------------------------------------------
This track looks like CDDA with probability 100%
------------------------------------------------------------
Processing file: [02 - Motherless Child.wav]
------------------------------------------------------------
This track looks like CDDA with probability 100%
------------------------------------------------------------
Processing file: [03 - In Escambrun.wav]
------------------------------------------------------------
This track looks like CDDA with probability 100%
------------------------------------------------------------
Processing file: [04 - The Young Turks.wav]
------------------------------------------------------------
This track looks like CDDA with probability 100%
------------------------------------------------------------
Processing file: [05 - You're Gonna Make It With Me.wav]
------------------------------------------------------------
This track looks like CDDA with probability 100%
------------------------------------------------------------
Processing file: [06 - Mushi Mushi.wav]
------------------------------------------------------------
This track looks like CDDA with probability 100%
------------------------------------------------------------
Processing file: [07 - Patato.wav]
------------------------------------------------------------
This track looks like CDDA with probability 100%
------------------------------------------------------------
Processing file: [08 - Stolen Moments.wav]
------------------------------------------------------------
This track looks like CDDA with probability 100%
------------------------------------------------------------
Processing file: [09 - Comin' Home Baby.wav]
------------------------------------------------------------
This track looks like CDDA with probability 100%
------------------------------------------------------------
Final Conclusion:
------------------------------------------------------------
These tracks looks like CDDA with probability 100%
Disс 2:
 
EAC
Exact Audio Copy V0.99 prebeta 4 from 23. January 2008
EAC extraction logfile from 11. November 2008, 22:15
Herbie Mann-Chick Corea / The Complete Latin Band Sessions Cd2
Used drive : PLEXTOR CD-R PREMIUM2 Adapter: 1 ID: 1
Read mode : Secure
Utilize accurate stream : Yes
Defeat audio cache : Yes
Make use of C2 pointers : No
Read offset correction : 30
Overread into Lead-In and Lead-Out : No
Fill up missing offset samples with silence : Yes
Delete leading and trailing silent blocks : No
Null samples used in CRC calculations : Yes
Used interface : Installed external ASPI interface
Gap handling : Appended to previous track
Used output format : User Defined Encoder
Selected bitrate : 32 kBit/s
Quality : High
Add ID3 tag : No
Command line compressor : C:\Programmi\FLAC\flac.exe
Additional command line options : -8 -V -T "ARTIST=%a" -T "TITLE=%t" -T "ALBUM=%g" -T "DATE=%y" -T "TRACKNUMBER=%n" -T "GENRE=%m" -T "COMMENT=EAC FLAC -8" %s
TOC of the extracted CD
Track | Start | Length | Start sector | End sector
---------------------------------------------------------
1 | 0:00.00 | 3:23.00 | 0 | 15224
2 | 3:23.00 | 4:59.00 | 15225 | 37649
3 | 8:22.00 | 3:53.00 | 37650 | 55124
4 | 12:15.00 | 3:25.00 | 55125 | 70499
5 | 15:40.00 | 3:53.00 | 70500 | 87974
6 | 19:33.00 | 4:09.00 | 87975 | 106649
7 | 23:42.00 | 4:13.00 | 106650 | 125624
8 | 27:55.00 | 5:03.00 | 125625 | 148349
9 | 32:58.00 | 4:35.00 | 148350 | 168974
10 | 37:33.00 | 4:37.00 | 168975 | 189749
11 | 42:10.00 | 2:29.00 | 189750 | 200924
12 | 44:39.00 | 4:19.00 | 200925 | 220349
13 | 48:58.00 | 2:33.00 | 220350 | 231824
14 | 51:31.00 | 2:17.00 | 231825 | 242099
15 | 53:48.00 | 2:41.00 | 242100 | 254174
16 | 56:29.00 | 3:29.00 | 254175 | 269849
17 | 59:58.00 | 2:26.00 | 269850 | 280799
Track 1
Filename C:\My Rip\01 - Let's Boom Chittiy Boom.wav
Pre-gap length 0:00:02.00
Peak level 96.6 %
Track quality 100.0 %
Test CRC AD666B39
Copy CRC AD666B39
Accurately ripped (confidence 2) [D28EF4C9]
Copy OK
Track 2
Filename C:\My Rip\02 - What'D I Say.wav
Pre-gap length 0:00:03.00
Peak level 96.6 %
Track quality 100.0 %
Test CRC 0A7D412D
Copy CRC 0A7D412D
Accurately ripped (confidence 2) [D15AB4DF]
Copy OK
Track 3
Filename C:\My Rip\03 - Senor Blues.wav
Pre-gap length 0:00:03.00
Peak level 96.6 %
Track quality 100.0 %
Test CRC A3C730F3
Copy CRC A3C730F3
Accurately ripped (confidence 2) [AA75CEEE]
Copy OK
Track 4
Filename C:\My Rip\04 - Bijou.wav
Pre-gap length 0:00:03.00
Peak level 96.6 %
Track quality 100.0 %
Test CRC D5F1594F
Copy CRC D5F1594F
Accurately ripped (confidence 2) [85D7504C]
Copy OK
Track 5
Filename C:\My Rip\05 - Jungle Fantasy.wav
Pre-gap length 0:00:03.00
Peak level 96.6 %
Track quality 100.0 %
Test CRC 40AE9624
Copy CRC 40AE9624
Accurately ripped (confidence 2) [D4C4061F]
Copy OK
Track 6
Filename C:\My Rip\06 - Watermelon Man.wav
Pre-gap length 0:00:03.00
Peak level 96.6 %
Track quality 100.0 %
Test CRC C813371D
Copy CRC C813371D
Accurately ripped (confidence 2) [92C0860C]
Copy OK
Track 7
Filename C:\My Rip\07 - Interlude.wav
Pre-gap length 0:00:03.00
Peak level 96.6 %
Track quality 99.9 %
Test CRC 69C1D894
Copy CRC 69C1D894
Accurately ripped (confidence 2) [CF8ADE76]
Copy OK
Track 8
Filename C:\My Rip\08 - The Jive Samba.wav
Pre-gap length 0:00:03.00
Peak level 96.6 %
Track quality 100.0 %
Test CRC 28ABF744
Copy CRC 28ABF744
Accurately ripped (confidence 2) [EC85C274]
Copy OK
Track 9
Filename C:\My Rip\09 - Ave Maria Morena.wav
Pre-gap length 0:00:03.00
Peak level 96.6 %
Track quality 100.0 %
Test CRC 1C4FA6B0
Copy CRC 1C4FA6B0
Accurately ripped (confidence 2) [8B1128E5]
Copy OK
Track 10
Filename C:\My Rip\10 - Manteca.wav
Pre-gap length 0:00:03.00
Peak level 96.6 %
Track quality 100.0 %
Test CRC 48D94506
Copy CRC 48D94506
Accurately ripped (confidence 2) [B951D935]
Copy OK
Track 11
Filename C:\My Rip\11 - It Isn't Enough.wav
Pre-gap length 0:00:03.00
Peak level 96.6 %
Track quality 100.0 %
Test CRC 6262AC20
Copy CRC 6262AC20
Accurately ripped (confidence 2) [41FB24A1]
Copy OK
Track 12
Filename C:\My Rip\12 - My First Love Song.wav
Pre-gap length 0:00:03.00
Peak level 96.6 %
Track quality 99.9 %
Test CRC A2CA169F
Copy CRC A2CA169F
Accurately ripped (confidence 2) [7F119426]
Copy OK
Track 13
Filename C:\My Rip\13 - A Wonderful Day Like Today.wav
Pre-gap length 0:00:03.00
Peak level 96.6 %
Track quality 100.0 %
Test CRC DAD95DD1
Copy CRC DAD95DD1
Accurately ripped (confidence 2) [BF10F79D]
Copy OK
Track 14
Filename C:\My Rip\14 - Who Can I Turn To.wav
Pre-gap length 0:00:03.00
Peak level 96.6 %
Track quality 100.0 %
Test CRC 07FC34E5
Copy CRC 07FC34E5
Accurately ripped (confidence 2) [C06C943F]
Copy OK
Track 15
Filename C:\My Rip\15 - The Joker.wav
Pre-gap length 0:00:03.00
Peak level 96.6 %
Track quality 100.0 %
Test CRC 28E4F858
Copy CRC 28E4F858
Accurately ripped (confidence 2) [DA9A1896]
Copy OK
Track 16
Filename C:\My Rip\16 - Feeling Good.wav
Pre-gap length 0:00:03.00
Peak level 96.6 %
Track quality 100.0 %
Test CRC DA078758
Copy CRC DA078758
Accurately ripped (confidence 2) [DF6F8CF2]
Copy OK
Track 17
Filename C:\My Rip\17 - Look At That Face.wav
Pre-gap length 0:00:03.00
Peak level 96.6 %
Track quality 100.0 %
Test CRC A68E154B
Copy CRC A68E154B
Accurately ripped (confidence 2) [1B22087C]
Copy OK
All tracks accurately ripped
No errors occurred
End of status report
 
auCDtest
auCDtect: CD records authenticity detector, version 0.8.2
Copyright (c) 2004 Oleg Berngardt. All rights reserved.
Copyright (c) 2004 Alexander Djourik. All rights reserved.
------------------------------------------------------------
Processing file: [01 - Let's Boom Chittiy Boom.wav]
------------------------------------------------------------
This track looks like CDDA with probability 99%
------------------------------------------------------------
Processing file: [02 - What'D I Say.wav]
------------------------------------------------------------
This track looks like CDDA with probability 100%
------------------------------------------------------------
Processing file: [03 - Senor Blues.wav]
------------------------------------------------------------
This track looks like CDDA with probability 100%
------------------------------------------------------------
Processing file: [04 - Bijou.wav]
------------------------------------------------------------
This track looks like CDDA with probability 100%
------------------------------------------------------------
Processing file: [05 - Jungle Fantasy.wav]
------------------------------------------------------------
This track looks like CDDA with probability 100%
------------------------------------------------------------
Processing file: [06 - Watermelon Man.wav]
------------------------------------------------------------
This track looks like CDDA with probability 100%
------------------------------------------------------------
Processing file: [07 - Interlude.wav]
------------------------------------------------------------
This track looks like CDDA with probability 100%
------------------------------------------------------------
Processing file: [08 - The Jive Samba.wav]
------------------------------------------------------------
This track looks like CDDA with probability 100%
------------------------------------------------------------
Processing file: [09 - Ave Maria Morena.wav]
------------------------------------------------------------
This track looks like CDDA with probability 99%
------------------------------------------------------------
Processing file: [10 - Manteca.wav]
------------------------------------------------------------
This track looks like CDDA with probability 100%
------------------------------------------------------------
Processing file: [11 - It Isn't Enough.wav]
------------------------------------------------------------
This track looks like CDDA with probability 100%
------------------------------------------------------------
Processing file: [12 - My First Love Song.wav]
------------------------------------------------------------
This track looks like CDDA with probability 100%
------------------------------------------------------------
Processing file: [13 - A Wonderful Day Like Today.wav]
------------------------------------------------------------
This track looks like CDDA with probability 100%
------------------------------------------------------------
Processing file: [14 - Who Can I Turn To.wav]
------------------------------------------------------------
This track looks like CDDA with probability 100%
------------------------------------------------------------
Processing file: [15 - The Joker.wav]
------------------------------------------------------------
This track looks like CDDA with probability 100%
------------------------------------------------------------
Processing file: [16 - Feeling Good.wav]
------------------------------------------------------------
This track looks like CDDA with probability 100%
------------------------------------------------------------
Processing file: [17 - Look At That Face.wav]
------------------------------------------------------------
This track looks like CDDA with probability 100%
------------------------------------------------------------
Final Conclusion:
------------------------------------------------------------
These tracks looks like CDDA with probability 100%


04:27
465
Нет комментариев. Ваш будет первым!