Поиск

(Jazz, sax) Gato Barbieri - Che Corazon - 1999, FLAC (tracks+.cue), lossless

(Jazz, sax) Gato Barbieri - Che Corazon - 1999, FLAC (tracks+.cue), lossless
Gato Barbieri - Che Corazon
Жанр: Jazz, sax
Год выпуска диска: 1999
Аудио кодек: FLAC
Тип рипа: tracks+.cue
Битрейт аудио: lossless
Продолжительность: 57:05
Трэклист:
01. Introduction
02. Cristiano
03. I Want You
04. Seven Servants
05. Blue Eyes
06. Eclipse
07. 1812
08. Woman on the Lake
09. Rosa
10. Sweet Glenda
11. Encounter
12. Auld Lang Syne
13. Finale
Доп. информация: Один из лучших альбомов этого потрясающего аргентинца
Artist: Gato Barbieri
Album: Che Corazon
Release Date: April 27, 1999
Label: Columbia
Genre: Jazz
Styles: Pop, Latin Jazz, Jazz-Pop
Run Time: 57:05
 
Отчет ЕАС
EAC extraction logfile from 20. December 2007, 19:04 for CD
Gato Barbieri / Che Corazуn
Used drive : HL-DT-STCD-RW GCE-8527B Adapter: 1 ID: 1
Read mode : Secure with C2, accurate stream, disable cache
Read offset correction : 6
Overread into Lead-In and Lead-Out : No
Used output format : Internal WAV Routines
44.100 Hz; 16 Bit; Stereo
Other options :
Fill up missing offset samples with silence : Yes
Delete leading and trailing silent blocks : No
Installed external ASPI interface
Track 1
Filename C:\My Music\RIPS\vbr\01 - Gato Barbieri - Introduction - 1999.wav
Peak level 67.6 %
Track quality 100.0 %
Test CRC 2D390EFD
Copy CRC 2D390EFD
Copy OK
Track 2
Filename C:\My Music\RIPS\vbr\02 - Gato Barbieri - Cristiano - 1999.wav
Peak level 97.7 %
Track quality 100.0 %
Test CRC D52E76EE
Copy CRC D52E76EE
Copy OK
Track 3
Filename C:\My Music\RIPS\vbr\03 - Gato Barbieri - I Want You - 1999.wav
Peak level 99.9 %
Track quality 100.0 %
Test CRC 763696A4
Copy CRC 763696A4
Copy OK
Track 4
Filename C:\My Music\RIPS\vbr\04 - Gato Barbieri - Seven Servants - 1999.wav
Peak level 80.3 %
Track quality 100.0 %
Test CRC 517FEF61
Copy CRC 517FEF61
Copy OK
Track 5
Filename C:\My Music\RIPS\vbr\05 - Gato Barbieri - Blue Eyes - 1999.wav
Peak level 89.1 %
Track quality 100.0 %
Test CRC D5B5C003
Copy CRC D5B5C003
Copy OK
Track 6
Filename C:\My Music\RIPS\vbr\06 - Gato Barbieri - Eclipse - 1999.wav
Peak level 91.2 %
Track quality 100.0 %
Test CRC B7A5DC24
Copy CRC B7A5DC24
Copy OK
Track 7
Filename C:\My Music\RIPS\vbr\07 - Gato Barbieri - 1812 - 1999.wav
Peak level 94.4 %
Track quality 100.0 %
Test CRC 6035AE66
Copy CRC 6035AE66
Copy OK
Track 8
Filename C:\My Music\RIPS\vbr\08 - Gato Barbieri - The Woman On The Lake - 1999.wav
Peak level 96.6 %
Track quality 100.0 %
Test CRC 35AFD477
Copy CRC 35AFD477
Copy OK
Track 9
Filename C:\My Music\RIPS\vbr\09 - Gato Barbieri - Rosa - 1999.wav
Peak level 94.4 %
Track quality 100.0 %
Test CRC BD83AE2E
Copy CRC BD83AE2E
Copy OK
Track 10
Filename C:\My Music\RIPS\vbr\10 - Gato Barbieri - Sweet Glenda - 1999.wav
Peak level 94.4 %
Track quality 100.0 %
Test CRC 4904DE13
Copy CRC 4904DE13
Copy OK
Track 11
Filename C:\My Music\RIPS\vbr\11 - Gato Barbieri - Encounter - 1999.wav
Peak level 91.2 %
Track quality 100.0 %
Test CRC 488293A2
Copy CRC 488293A2
Copy OK
Track 12
Filename C:\My Music\RIPS\vbr\12 - Gato Barbieri - Auld Lang Syne - 1999.wav
Peak level 92.2 %
Track quality 100.0 %
Test CRC 74584CC8
Copy CRC 74584CC8
Copy OK
Track 13
Filename C:\My Music\RIPS\vbr\13 - Gato Barbieri - Finale - 1999.wav
Peak level 94.4 %
Track quality 100.0 %
Test CRC 2781A094
Copy CRC 2781A094
Copy OK
No errors occured
End of status report
04:28
455
Нет комментариев. Ваш будет первым!