Поиск

(World Fusion) Karim Ziad - Ifrikya - 2001, FLAC (image+.cue), lossless

(World Fusion) Karim Ziad - Ifrikya - 2001, FLAC (image+.cue), lossless
Треклист:
Karim Ziad - Ifrikya
Жанр: World Fusion
Год выпуска диска: 2001
Производитель диска: EC (ACT Music)
Аудио кодек: FLAC
Тип рипа: image+.cue
Битрейт аудио: lossless
Продолжительность: 51:13
Karim Ziad vocals, drums, percussion, gembri, guitar, mandola
Abdelkbir Merchane vocals
Hamid Mestari vocals, outar
Abdenour Djemaï banjo, mandola, vocals
Menni Mohamed percussion, vocals
Khliff Miziallaoua guitar, vocals
Nguyên Lê guitar
Bojan Zulfikarpasic piano
Jean-Philippe Rykiel synthesizer
David Aubel flute
Ali Wague pehl flute
Linley Marthe bass
Michel Alibo bass
Alain Debiossat saxophones
Vincent Mascart tenor saxophone
Gaëlle Hervé background vocals
Marielle Hervé background vocals
Aît Oumrar
Ya Rijal
Awra
Lebnia
Alouhid
Sandiya
Amaliya
Gwarir
The Joker
Nesrafet
 
EAC Report
Exact Audio Copy V0.99 prebeta 4 from 23. January 2008
EAC extraction logfile from 5. July 2008, 22:54
Karim Ziad / Ifrikya
Used drive : TSSTcorpCD/DVDW SH-S182M Adapter: 2 ID: 0
Read mode : Secure
Utilize accurate stream : Yes
Defeat audio cache : Yes
Make use of C2 pointers : No
Read offset correction : 6
Overread into Lead-In and Lead-Out : No
Fill up missing offset samples with silence : Yes
Delete leading and trailing silent blocks : No
Null samples used in CRC calculations : No
Used interface : Installed external ASPI interface
Used output format : User Defined Encoder
Selected bitrate : 768 kBit/s
Quality : High
Add ID3 tag : No
Command line compressor : C:\Program Files\Exact Audio Copy\FLAC\FLAC.EXE
Additional command line options : -6 -V -T "ARTIST=%a" -T "TITLE=%t" -T "ALBUM=%g" -T "DATE=%y" -T "TRACKNUMBER=%n" -T "GENRE=%m" -T "COMMENT=%e" %s -o %d
TOC of the extracted CD
Track | Start | Length | Start sector | End sector
---------------------------------------------------------
1 | 0:00.00 | 5:16.20 | 0 | 23719
2 | 5:16.20 | 4:47.22 | 23720 | 45266
3 | 10:03.42 | 6:08.63 | 45267 | 72929
4 | 16:12.30 | 5:52.62 | 72930 | 99391
5 | 22:05.17 | 5:46.03 | 99392 | 125344
6 | 27:51.20 | 4:37.22 | 125345 | 146141
7 | 32:28.42 | 3:41.18 | 146142 | 162734
8 | 36:09.60 | 4:51.22 | 162735 | 184581
9 | 41:01.07 | 5:32.55 | 184582 | 209536
10 | 46:33.62 | 4:38.73 | 209537 | 230459
Range status and errors
Selected range
Filename F:\z\Karim Ziad - Ifrikya.wav
Peak level 100.0 %
Range quality 100.0 %
Copy CRC 280E3301
Copy OK
No errors occurred
AccurateRip summary
Track 1 not present in database
Track 2 not present in database
Track 3 not present in database
Track 4 not present in database
Track 5 not present in database
Track 6 not present in database
Track 7 not present in database
Track 8 not present in database
Track 9 not present in database
Track 10 not present in database
None of the tracks are present in the AccurateRip database
End of status report
04:29
422
Нет комментариев. Ваш будет первым!