Поиск

(Jazz, Jewish Music) Daniel Zamir - Amen - 2006, FLAC (tracks+.cue), lossless

(Jazz, Jewish Music) Daniel Zamir - Amen - 2006, FLAC (tracks+.cue), lossless
Daniel Zamir - Amen (2006)
Жанр: Jazz, Jewish Music
Дата записи: 2006
Дата выпуска: 2006
Производитель диска, страна: Ha-Tav Ha-Shmini, Israel
Страна исполнителя: Israel
Аудио кодек: FLAC
Тип рипа: (tracks + .cue)
Битрейт аудио: lossless
Включает: Full artwork, jpg
Продолжительность: 01:18:09
Источник: torrent
Трэклист:
1 - Chamesh Eysrei
2 - Shesh Eysrei
3 - Shesh Shminiot
4 - Chamesh Madregot Ba Neshama
5 - Tesha
6 - Shva Eysrei
7 - Pishluk
8 - Shir Ha Shomer
9 - Hasher Hameluna
Состав:
Daniel Zamir - soprano sax, voice
Omri Mor - piano
Omer Avital - bass
Daniel Fridman - drums
quest - Avishai Koen - trumpet
Мои раздачи на треккере - jazz / fusion / prog
 
Folder content
01 - Chamesh Eysrei.flac
02 - Shesh Eysrei.flac
03 - Shesh Shminiot.flac
04 - Chamesh Madregot Ba Neshama.flac
05 - Tesha.flac
06 - Shva Eysrei.flac
07 - Pishluk.flac
08 - Shir Ha Shomer.flac
09 - Hasher Hameluna.flac
Amen.CUE
Amen.log
Artwork
Daniel Zamir - Amen.m3u
tau.txt
Artwork\booklet1.jpg
Artwork\booklet2.jpg
Artwork\booklet3.jpg
Artwork\booklet4.jpg
Artwork\booklet5.jpg
Artwork\booklet6.jpg
Artwork\booklet7.jpg
Artwork\booklet_cover.jpg
Artwork\digipack_inside.jpg
Artwork\digipack_outside.jpg
Artwork\thumb.jpg
 
EAC log
EAC extraction logfile from 27. July 2007, 2:39 for CD
Daniel Zamir / Amen
Used drive : PLEXTOR DVDR PX-755A Adapter: 4 ID: 0
Read mode : Secure with NO C2, accurate stream, disable cache
Read offset correction : 30
Overread into Lead-In and Lead-Out : Yes
Used output format : C:\Program Files\FLAC\flac.exe (User Defined Encoder)
128 kBit/s
Additional command line options : -V -8 -T "artist=%a" -T "title=%t" -T "album=%g" -T "date=%y" -T "tracknumber=%n" -T "genre=%m" %s
Other options :
Fill up missing offset samples with silence : Yes
Delete leading and trailing silent blocks : No
Native Win32 interface for Win NT & 2000
Track 1
Filename C:\uploads\Daniel Zamir - Amen (2006) [FLAC]\01 - Chamesh Eysrei.wav
Pre-gap length 0:00:02.00
Peak level 100.0 %
Track quality 100.0 %
Test CRC 53482FD4
Copy CRC 53482FD4
Copy OK
Track 2
Filename C:\uploads\Daniel Zamir - Amen (2006) [FLAC]\02 - Shesh Eysrei.wav
Pre-gap length 0:00:00.62
Peak level 100.0 %
Track quality 99.9 %
Test CRC CE08C832
Copy CRC CE08C832
Copy OK
Track 3
Filename C:\uploads\Daniel Zamir - Amen (2006) [FLAC]\03 - Shesh Shminiot.wav
Pre-gap length 0:00:00.82
Peak level 100.0 %
Track quality 100.0 %
Test CRC 7CEA8A31
Copy CRC 7CEA8A31
Copy OK
Track 4
Filename C:\uploads\Daniel Zamir - Amen (2006) [FLAC]\04 - Chamesh Madregot Ba Neshama.wav
Pre-gap length 0:00:00.13
Peak level 100.0 %
Track quality 100.0 %
Test CRC 4ACC58E3
Copy CRC 4ACC58E3
Copy OK
Track 5
Filename C:\uploads\Daniel Zamir - Amen (2006) [FLAC]\05 - Tesha.wav
Pre-gap length 0:00:02.28
Peak level 100.0 %
Track quality 100.0 %
Test CRC 596A7EAB
Copy CRC 596A7EAB
Copy OK
Track 6
Filename C:\uploads\Daniel Zamir - Amen (2006) [FLAC]\06 - Shva Eysrei.wav
Pre-gap length 0:00:01.08
Peak level 100.0 %
Track quality 100.0 %
Test CRC 583106E6
Copy CRC 583106E6
Copy OK
Track 7
Filename C:\uploads\Daniel Zamir - Amen (2006) [FLAC]\07 - Pishluk.wav
Pre-gap length 0:00:00.81
Peak level 96.4 %
Track quality 100.0 %
Test CRC DDBD589D
Copy CRC DDBD589D
Copy OK
Track 8
Filename C:\uploads\Daniel Zamir - Amen (2006) [FLAC]\08 - Shir Ha Shomer.wav
Pre-gap length 0:00:00.01
Peak level 99.8 %
Track quality 100.0 %
Test CRC 9001B88A
Copy CRC 9001B88A
Copy OK
Track 9
Filename C:\uploads\Daniel Zamir - Amen (2006) [FLAC]\09 - Hasher Hameluna.wav
Pre-gap length 0:00:01.73
Peak level 99.7 %
Track quality 100.0 %
Test CRC 65ADAB9C
Copy CRC 65ADAB9C
Copy OK
No errors occured
End of status report
 
auCDtect log
3115809878 55020380 01 - Chamesh Eysrei.wav
246514450 111879980 02 - Shesh Eysrei.wav
2202113654 109471532 03 - Shesh Shminiot.wav
2392587504 59463308 04 - Chamesh Madregot Ba Neshama.wav
828814890 116614556 05 - Tesha.wav
4061510439 64263740 06 - Shva Eysrei.wav
3105987030 2796572 07 - Pishluk.wav
1434045259 71529068 08 - Shir Ha Shomer.wav
1261485714 236804108 09 - Hasher Hameluna.wav
auCDtect: CD records authenticity detector, version 0.8.2
Copyright (c) 2004 Oleg Berngardt. All rights reserved.
Copyright (c) 2004 Alexander Djourik. All rights reserved.
------------------------------------------------------------
Processing file: [01 - Chamesh Eysrei.wav]
------------------------------------------------------------
This track looks like CDDA with probability 100%
------------------------------------------------------------
Processing file: [02 - Shesh Eysrei.wav]
------------------------------------------------------------
This track looks like CDDA with probability 100%
------------------------------------------------------------
Processing file: [03 - Shesh Shminiot.wav]
------------------------------------------------------------
This track looks like CDDA with probability 99%
------------------------------------------------------------
Processing file: [04 - Chamesh Madregot Ba Neshama.wav]
------------------------------------------------------------
This track looks like CDDA with probability 100%
------------------------------------------------------------
Processing file: [05 - Tesha.wav]
------------------------------------------------------------
This track looks like CDDA with probability 100%
------------------------------------------------------------
Processing file: [06 - Shva Eysrei.wav]
------------------------------------------------------------
This track looks like CDDA with probability 100%
------------------------------------------------------------
Processing file: [07 - Pishluk.wav]
------------------------------------------------------------
This track looks like CDDA with probability 100%
------------------------------------------------------------
Processing file: [08 - Shir Ha Shomer.wav]
------------------------------------------------------------
This track looks like CDDA with probability 99%
------------------------------------------------------------
Processing file: [09 - Hasher Hameluna.wav]
------------------------------------------------------------
This track looks like CDDA with probability 100%
------------------------------------------------------------
Final Conclusion:
------------------------------------------------------------
These tracks looks like CDDA with probability 100%
Я не сидирую все свои раздачи подолгу, только новые (до 3х первых сидов)
Предлагаю скачавшим максимально долго оставаться на раздаче - весь рейтинг будет ваш
Если нет сидов или раздача находится в архиве, попросите в топике или в ПМ, и я вернусь
04:27
368
Нет комментариев. Ваш будет первым!