Поиск

(Latin, Jazz-Funk) Nilo Espinosa - Shaken, Not Stirred - 2007, FLAC (tracks), lossless

(Latin, Jazz-Funk) Nilo Espinosa - Shaken, Not Stirred - 2007, FLAC (tracks), lossless
Треклист:
Nilo Espinosa - Shaken, Not Stirred
Жанр: Latin, Jazz-Funk
Страна-производитель диска: Spain
Год издания диска: 2007
Издатель (лейбл): Vampi Soul
Номер по каталогу: VAMPI CD 085
Аудиокодек: FLAC (*.flac)
Тип рипа: tracks
Битрейт аудио: lossless
Продолжительность: 1:07:34
Источник (релизер): wata
Наличие сканов в содержимом раздачи: нет
Треклист:
1. Reflexiones (Nil´s Jazz Ensemble)
2. El Gato (Bossa 70 )
3. Think (Bossa 70)
4. Las Mariposas (Bossa 70)
5. Summer Love (Nil´s Jazz Ensemble)
6. Black Angel (Nil´s Jazz Ensemble)
7. Get Out Of My Way (Bossa 70)
8. Here Come The Hilton's (Los Hilton´s)
9. Sherezade (Los Hilton´s)
10. El Bueno, el Feo y el Malo (Nilo Espinosa con Los 007)
11. Hard Work (Nil´s Jazz Ensemble)
12. Looking For A Blues (Nil´s Jazz Ensemble)
13. Somos Nada (Nil´s Jazz Ensemble)
14. Midnight And You (Nilo Espinosa y Orquesta)
15. Gotas de Miel (Nilo Espinosa y Orquesta)
16. Light My Fire (Nilo Espinosa y Orquesta con Charlie Guerrero) o
17. Rock Your Baby (Nilo Espinosa y Orquesta)
18. People Got To Be Free (Nilo Espinosa y Orquesta con Charlie & Many)
 
Лог создания рипа
X Lossless Decoder version 20090320 (105.1)
XLD extraction logfile from 2009-07-11 16:21:54 -0400
Nilo Espinosa / Shaken, Not Stirred
Used drive : HL-DT-ST DVDRW GSA-S10N (revision AP09)
Use cdparanoia mode : YES (CDParanoia III 10.2 engine)
Disable audio cache : OK for the drive with cache less than 2750KB
Make use of C2 pointers : NO
Read offset correction : 667
Max retry count : 100
TOC of the extracted CD
Track | Start | Length | Start sector | End sector
---------------------------------------------------------
1 | 00:00:00 | 03:57:35 | 0 | 17809
2 | 03:57:35 | 03:53:48 | 17810 | 35332
3 | 07:51:08 | 05:22:11 | 35333 | 59493
4 | 13:13:19 | 02:42:67 | 59494 | 71710
5 | 15:56:11 | 04:07:64 | 71711 | 90299
6 | 20:04:00 | 05:39:24 | 90300 | 115748
7 | 25:43:24 | 03:46:03 | 115749 | 132701
8 | 29:29:27 | 03:01:39 | 132702 | 146315
9 | 32:30:66 | 02:26:64 | 146316 | 157329
10 | 34:57:55 | 02:46:48 | 157330 | 169827
11 | 37:44:28 | 04:37:36 | 169828 | 190638
12 | 42:21:64 | 03:39:51 | 190639 | 207114
13 | 46:01:40 | 03:58:61 | 207115 | 225025
14 | 50:00:26 | 05:12:59 | 225026 | 248484
15 | 55:13:10 | 03:02:68 | 248485 | 262202
16 | 58:16:03 | 03:18:32 | 262203 | 277084
17 | 61:34:35 | 03:13:27 | 277085 | 291586
18 | 64:47:62 | 02:46:02 | 291587 | 304038
Track 01
Filename : /Users/marioinc/Desktop/01 Nilo Espinosa - Reflexiones.aiff
/Users/marioinc/Desktop/01 Nilo Espinosa - Reflexiones.flac
/Users/marioinc/Desktop/01 Nilo Espinosa - Reflexiones.mp3
CRC32 hash (test run) : 4967E0F4
CRC32 hash : 4967E0F4
CRC32 hash (skip zero) : 8AB22F3E
AccurateRip signature : F19C7845
->Track not present in AccurateRip database.
Statistics
Read error : 0
Skipped (treated as error) : 0
Edge jitter error (maybe fixed) : 0
Atom jitter error (maybe fixed) : 0
Drift error (maybe fixed) : 0
Dropped bytes error (maybe fixed) : 0
Duplicated bytes error (maybe fixed) : 0
Inconsistency in error sectors : 0
Track 02
Filename : /Users/marioinc/Desktop/02 Nilo Espinosa - El Gato.aiff
/Users/marioinc/Desktop/02 Nilo Espinosa - El Gato.flac
/Users/marioinc/Desktop/02 Nilo Espinosa - El Gato.mp3
CRC32 hash (test run) : B5D016CE
CRC32 hash : B5D016CE
CRC32 hash (skip zero) : D38EF5EA
AccurateRip signature : 7CE66912
->Track not present in AccurateRip database.
Statistics
Read error : 0
Skipped (treated as error) : 0
Edge jitter error (maybe fixed) : 0
Atom jitter error (maybe fixed) : 0
Drift error (maybe fixed) : 0
Dropped bytes error (maybe fixed) : 0
Duplicated bytes error (maybe fixed) : 0
Inconsistency in error sectors : 0
Track 03
Filename : /Users/marioinc/Desktop/03 Nilo Espinosa - Think.aiff
/Users/marioinc/Desktop/03 Nilo Espinosa - Think.flac
/Users/marioinc/Desktop/03 Nilo Espinosa - Think.mp3
CRC32 hash (test run) : FE2884E3
CRC32 hash : FE2884E3
CRC32 hash (skip zero) : C6AECD72
AccurateRip signature : D94EB4EF
->Track not present in AccurateRip database.
Statistics
Read error : 0
Skipped (treated as error) : 0
Edge jitter error (maybe fixed) : 0
Atom jitter error (maybe fixed) : 0
Drift error (maybe fixed) : 0
Dropped bytes error (maybe fixed) : 0
Duplicated bytes error (maybe fixed) : 0
Inconsistency in error sectors : 0
Track 04
Filename : /Users/marioinc/Desktop/04 Nilo Espinosa - Las Mariposas.aiff
/Users/marioinc/Desktop/04 Nilo Espinosa - Las Mariposas.flac
/Users/marioinc/Desktop/04 Nilo Espinosa - Las Mariposas.mp3
CRC32 hash (test run) : 9F044FEC
CRC32 hash : 9F044FEC
CRC32 hash (skip zero) : 99780023
AccurateRip signature : EBB59230
->Track not present in AccurateRip database.
Statistics
Read error : 0
Skipped (treated as error) : 0
Edge jitter error (maybe fixed) : 0
Atom jitter error (maybe fixed) : 0
Drift error (maybe fixed) : 0
Dropped bytes error (maybe fixed) : 0
Duplicated bytes error (maybe fixed) : 0
Inconsistency in error sectors : 0
Track 05
Filename : /Users/marioinc/Desktop/05 Nilo Espinosa - Summer Love.aiff
/Users/marioinc/Desktop/05 Nilo Espinosa - Summer Love.flac
/Users/marioinc/Desktop/05 Nilo Espinosa - Summer Love.mp3
CRC32 hash (test run) : 03C20600
CRC32 hash : 03C20600
CRC32 hash (skip zero) : DCAD4EDB
AccurateRip signature : 0C9673B7
->Track not present in AccurateRip database.
Statistics
Read error : 0
Skipped (treated as error) : 0
Edge jitter error (maybe fixed) : 0
Atom jitter error (maybe fixed) : 0
Drift error (maybe fixed) : 0
Dropped bytes error (maybe fixed) : 0
Duplicated bytes error (maybe fixed) : 0
Inconsistency in error sectors : 0
Track 06
Filename : /Users/marioinc/Desktop/06 Nilo Espinosa - Black Angel.aiff
/Users/marioinc/Desktop/06 Nilo Espinosa - Black Angel.flac
/Users/marioinc/Desktop/06 Nilo Espinosa - Black Angel.mp3
CRC32 hash (test run) : DF2B378B
CRC32 hash : DF2B378B
CRC32 hash (skip zero) : E1799CDD
AccurateRip signature : 93D8B78B
->Track not present in AccurateRip database.
Statistics
Read error : 0
Skipped (treated as error) : 0
Edge jitter error (maybe fixed) : 0
Atom jitter error (maybe fixed) : 0
Drift error (maybe fixed) : 0
Dropped bytes error (maybe fixed) : 0
Duplicated bytes error (maybe fixed) : 0
Inconsistency in error sectors : 0
Track 07
Filename : /Users/marioinc/Desktop/07 Nilo Espinosa - Get Out Of My Way.aiff
/Users/marioinc/Desktop/07 Nilo Espinosa - Get Out Of My Way.flac
/Users/marioinc/Desktop/07 Nilo Espinosa - Get Out Of My Way.mp3
CRC32 hash (test run) : E693CECB
CRC32 hash : E693CECB
CRC32 hash (skip zero) : 4FC51CA2
AccurateRip signature : 3733BF27
->Track not present in AccurateRip database.
Statistics
Read error : 0
Skipped (treated as error) : 0
Edge jitter error (maybe fixed) : 0
Atom jitter error (maybe fixed) : 0
Drift error (maybe fixed) : 0
Dropped bytes error (maybe fixed) : 0
Duplicated bytes error (maybe fixed) : 0
Inconsistency in error sectors : 0
Track 08
Filename : /Users/marioinc/Desktop/08 Nilo Espinosa - Here Come The Hilton's.aiff
/Users/marioinc/Desktop/08 Nilo Espinosa - Here Come The Hilton's.flac
/Users/marioinc/Desktop/08 Nilo Espinosa - Here Come The Hilton's.mp3
CRC32 hash (test run) : D1F745E9
CRC32 hash : D1F745E9
CRC32 hash (skip zero) : 4CD08A7E
AccurateRip signature : 41E2AEE1
->Track not present in AccurateRip database.
Statistics
Read error : 0
Skipped (treated as error) : 0
Edge jitter error (maybe fixed) : 0
Atom jitter error (maybe fixed) : 0
Drift error (maybe fixed) : 0
Dropped bytes error (maybe fixed) : 0
Duplicated bytes error (maybe fixed) : 0
Inconsistency in error sectors : 0
Track 09
Filename : /Users/marioinc/Desktop/09 Nilo Espinosa - Sherezade.aiff
/Users/marioinc/Desktop/09 Nilo Espinosa - Sherezade.flac
/Users/marioinc/Desktop/09 Nilo Espinosa - Sherezade.mp3
CRC32 hash (test run) : D31FB46F
CRC32 hash : D31FB46F
CRC32 hash (skip zero) : CCDDE22A
AccurateRip signature : 6281B1A8
->Track not present in AccurateRip database.
Statistics
Read error : 0
Skipped (treated as error) : 0
Edge jitter error (maybe fixed) : 0
Atom jitter error (maybe fixed) : 0
Drift error (maybe fixed) : 0
Dropped bytes error (maybe fixed) : 0
Duplicated bytes error (maybe fixed) : 0
Inconsistency in error sectors : 0
Track 10
Filename : /Users/marioinc/Desktop/10 Nilo Espinosa - El Bueno, El Feo Y El Malo.aiff
/Users/marioinc/Desktop/10 Nilo Espinosa - El Bueno, El Feo Y El Malo.flac
/Users/marioinc/Desktop/10 Nilo Espinosa - El Bueno, El Feo Y El Malo.mp3
CRC32 hash (test run) : ACB19307
CRC32 hash : ACB19307
CRC32 hash (skip zero) : E3E4ADDD
AccurateRip signature : 0AEA04BD
->Track not present in AccurateRip database.
Statistics
Read error : 0
Skipped (treated as error) : 0
Edge jitter error (maybe fixed) : 0
Atom jitter error (maybe fixed) : 0
Drift error (maybe fixed) : 0
Dropped bytes error (maybe fixed) : 0
Duplicated bytes error (maybe fixed) : 0
Inconsistency in error sectors : 0
Track 11
Filename : /Users/marioinc/Desktop/11 Nilo Espinosa - Hard Work.aiff
/Users/marioinc/Desktop/11 Nilo Espinosa - Hard Work.flac
/Users/marioinc/Desktop/11 Nilo Espinosa - Hard Work.mp3
CRC32 hash (test run) : C5BB660C
CRC32 hash : C5BB660C
CRC32 hash (skip zero) : 3E7F6EA1
AccurateRip signature : 242B8325
->Track not present in AccurateRip database.
Statistics
Read error : 0
Skipped (treated as error) : 0
Edge jitter error (maybe fixed) : 0
Atom jitter error (maybe fixed) : 0
Drift error (maybe fixed) : 0
Dropped bytes error (maybe fixed) : 0
Duplicated bytes error (maybe fixed) : 0
Inconsistency in error sectors : 0
Track 12
Filename : /Users/marioinc/Desktop/12 Nilo Espinosa - Looking For A Blues.aiff
/Users/marioinc/Desktop/12 Nilo Espinosa - Looking For A Blues.flac
/Users/marioinc/Desktop/12 Nilo Espinosa - Looking For A Blues.mp3
CRC32 hash (test run) : 4A9A277C
CRC32 hash : 4A9A277C
CRC32 hash (skip zero) : EA80B3EA
AccurateRip signature : BF28CECE
->Track not present in AccurateRip database.
Statistics
Read error : 0
Skipped (treated as error) : 0
Edge jitter error (maybe fixed) : 0
Atom jitter error (maybe fixed) : 0
Drift error (maybe fixed) : 0
Dropped bytes error (maybe fixed) : 0
Duplicated bytes error (maybe fixed) : 0
Inconsistency in error sectors : 0
Track 13
Filename : /Users/marioinc/Desktop/13 Nilo Espinosa - Somos Nada.aiff
/Users/marioinc/Desktop/13 Nilo Espinosa - Somos Nada.flac
/Users/marioinc/Desktop/13 Nilo Espinosa - Somos Nada.mp3
CRC32 hash (test run) : 58574DBC
CRC32 hash : 58574DBC
CRC32 hash (skip zero) : A639577B
AccurateRip signature : 6F5A4D13
->Track not present in AccurateRip database.
Statistics
Read error : 0
Skipped (treated as error) : 0
Edge jitter error (maybe fixed) : 0
Atom jitter error (maybe fixed) : 0
Drift error (maybe fixed) : 0
Dropped bytes error (maybe fixed) : 0
Duplicated bytes error (maybe fixed) : 0
Inconsistency in error sectors : 0
Track 14
Filename : /Users/marioinc/Desktop/14 Nilo Espinosa - Midnight And You.aiff
/Users/marioinc/Desktop/14 Nilo Espinosa - Midnight And You.flac
/Users/marioinc/Desktop/14 Nilo Espinosa - Midnight And You.mp3
CRC32 hash (test run) : E39E4194
CRC32 hash : E39E4194
CRC32 hash (skip zero) : B7A9A9A0
AccurateRip signature : B96CB22A
->Track not present in AccurateRip database.
Statistics
Read error : 0
Skipped (treated as error) : 0
Edge jitter error (maybe fixed) : 0
Atom jitter error (maybe fixed) : 0
Drift error (maybe fixed) : 0
Dropped bytes error (maybe fixed) : 0
Duplicated bytes error (maybe fixed) : 0
Inconsistency in error sectors : 0
Track 15
Filename : /Users/marioinc/Desktop/15 Nilo Espinosa - Gotas De Miel.aiff
/Users/marioinc/Desktop/15 Nilo Espinosa - Gotas De Miel.flac
/Users/marioinc/Desktop/15 Nilo Espinosa - Gotas De Miel.mp3
CRC32 hash (test run) : 82BD911B
CRC32 hash : 82BD911B
CRC32 hash (skip zero) : A0760E7D
AccurateRip signature : CDFE97EC
->Track not present in AccurateRip database.
Statistics
Read error : 0
Skipped (treated as error) : 0
Edge jitter error (maybe fixed) : 0
Atom jitter error (maybe fixed) : 0
Drift error (maybe fixed) : 0
Dropped bytes error (maybe fixed) : 0
Duplicated bytes error (maybe fixed) : 0
Inconsistency in error sectors : 0
Track 16
Filename : /Users/marioinc/Desktop/16 Nilo Espinosa - Light My Fire.aiff
/Users/marioinc/Desktop/16 Nilo Espinosa - Light My Fire.flac
/Users/marioinc/Desktop/16 Nilo Espinosa - Light My Fire.mp3
CRC32 hash (test run) : 4A1D5B40
CRC32 hash : 4A1D5B40
CRC32 hash (skip zero) : 5A559F80
AccurateRip signature : C1F8CE99
->Track not present in AccurateRip database.
Statistics
Read error : 0
Skipped (treated as error) : 0
Edge jitter error (maybe fixed) : 0
Atom jitter error (maybe fixed) : 0
Drift error (maybe fixed) : 0
Dropped bytes error (maybe fixed) : 0
Duplicated bytes error (maybe fixed) : 0
Inconsistency in error sectors : 0
Track 17
Filename : /Users/marioinc/Desktop/17 Nilo Espinosa - Rock Your Baby.aiff
/Users/marioinc/Desktop/17 Nilo Espinosa - Rock Your Baby.flac
/Users/marioinc/Desktop/17 Nilo Espinosa - Rock Your Baby.mp3
CRC32 hash (test run) : 294AA4BE
CRC32 hash : 294AA4BE
CRC32 hash (skip zero) : B7600F00
AccurateRip signature : 5DF97CD2
->Track not present in AccurateRip database.
Statistics
Read error : 0
Skipped (treated as error) : 0
Edge jitter error (maybe fixed) : 0
Atom jitter error (maybe fixed) : 0
Drift error (maybe fixed) : 0
Dropped bytes error (maybe fixed) : 0
Duplicated bytes error (maybe fixed) : 0
Inconsistency in error sectors : 0
Track 18
Filename : /Users/marioinc/Desktop/18 Nilo Espinosa - People Got To Be Free.aiff
/Users/marioinc/Desktop/18 Nilo Espinosa - People Got To Be Free.flac
/Users/marioinc/Desktop/18 Nilo Espinosa - People Got To Be Free.mp3
CRC32 hash (test run) : AAB78393
CRC32 hash : AAB78393
CRC32 hash (skip zero) : C40E128A
AccurateRip signature : 95D8AE4B
->Track not present in AccurateRip database.
Statistics
Read error : 0
Skipped (treated as error) : 0
Edge jitter error (maybe fixed) : 0
Atom jitter error (maybe fixed) : 0
Drift error (maybe fixed) : 0
Dropped bytes error (maybe fixed) : 0
Duplicated bytes error (maybe fixed) : 0
Inconsistency in error sectors : 0
No errors occurred
End of status report
 
Лог проверки качества
-----------------------
DON'T MODIFY THIS FILE
-----------------------
PERFORMER: auCDtect Task Manager, ver. 1.5.1RC4 build 1.5.1.5
Copyright (c) 2008-2010 y-soft. All rights reserved
http://y-soft.org
ANALYZER: auCDtect: CD records authenticity detector, version 0.8.2
Copyright (c) 2004 Oleg Berngardt. All rights reserved.
Copyright (c) 2004 Alexander Djourik. All rights reserved.
FILE: 18 Nilo Espinosa - People Got To Be Free.flac
Size: 18292060 Hash: 5794AC63BACECB3A0094A10B6135C0CE Accuracy: -m0
Conclusion: CDDA 100%
Signature: A461FF6D159C4F26871A482C03B5CA815ED1506B
FILE: 17 Nilo Espinosa - Rock Your Baby.flac
Size: 23304816 Hash: 283B709CF8A7C345ECC8C3275BC0A241 Accuracy: -m0
Conclusion: CDDA 100%
Signature: 9FFC3E6169275DF1ADF1D1228020CA5C61091A38
FILE: 16 Nilo Espinosa - Light My Fire.flac
Size: 21502539 Hash: 1622D8C893AF23D289393763E09840F8 Accuracy: -m0
Conclusion: CDDA 100%
Signature: 905B412C6125368FD5DD95BAF711A854975EDDD3
FILE: 15 Nilo Espinosa - Gotas De Miel.flac
Size: 20407995 Hash: A522C043232E8B3D3FCF7381E0C244BF Accuracy: -m0
Conclusion: CDDA 100%
Signature: 82574FC55A151653CA7F8E336B8261048C2A190E
FILE: 14 Nilo Espinosa - Midnight And You.flac
Size: 34586088 Hash: ED9A9359D3521538189C3B80F7C3E21E Accuracy: -m0
Conclusion: CDDA 100%
Signature: E41F7011C8F47CEB70C268BCE79F4D27128CAEC4
FILE: 13 Nilo Espinosa - Somos Nada.flac
Size: 27413184 Hash: 89F473E6B7156DB872AF84BBD2232E99 Accuracy: -m0
Conclusion: CDDA 100%
Signature: 25C5EF39EB14A4EE660E3A7E8A16F43B5D1877BC
FILE: 12 Nilo Espinosa - Looking For A Blues.flac
Size: 25161371 Hash: 93B231FD0122512DAA103B645A793322 Accuracy: -m0
Conclusion: CDDA 100%
Signature: AEC688DFE604926AB22510F7F3F610919AA7351B
FILE: 11 Nilo Espinosa - Hard Work.flac
Size: 31363753 Hash: 64066D584F97F6C73D81E3D5D4EA2BDA Accuracy: -m0
Conclusion: CDDA 100%
Signature: 36CD4418017A93CDBD9418A6EB4BA4E5A5B7F909
FILE: 10 Nilo Espinosa - El Bueno, El Feo Y El Malo.flac
Size: 19590118 Hash: 70949F1A1BD8BC090EB223A09A387CE8 Accuracy: -m0
Conclusion: CDDA 100%
Signature: 4A1E514FD6FD679C4D7D17E5498CCF6B3AFEB46C
FILE: 09 Nilo Espinosa - Sherezade.flac
Size: 16084391 Hash: 81E8CD4A636687B195DC1A68AC1F5D6B Accuracy: -m0
Conclusion: CDDA 100%
Signature: 7C86D0EE340CDA9523A62FA666BAC11F9A7EF086
FILE: 08 Nilo Espinosa - Here Come The Hilton's.flac
Size: 20670541 Hash: 87987699309880A7A3909CB7E806DC3D Accuracy: -m0
Conclusion: CDDA 100%
Signature: 7ED693550CD673D4B06CF843B2615A4B18B9E318
FILE: 07 Nilo Espinosa - Get Out Of My Way.flac
Size: 28840007 Hash: 5D0CF34B679A2129190C4FD0F71E5124 Accuracy: -m0
Conclusion: CDDA 100%
Signature: ADC5BC617446139359DC56C4520D9E5EF545E8E0
FILE: 06 Nilo Espinosa - Black Angel.flac
Size: 38428510 Hash: 8B792917213C136AC99FE7B1849098BA Accuracy: -m0
Conclusion: CDDA 100%
Signature: 88C6F943555FDC302D368F45EAEE1EE31D8E3A43
FILE: 05 Nilo Espinosa - Summer Love.flac
Size: 29165383 Hash: 0CA090AE317B08B39309B6743AEB9F19 Accuracy: -m0
Conclusion: CDDA 99%
Signature: 81E74F086F8D40C423C410EF42CF1F0486C8A80C
FILE: 04 Nilo Espinosa - Las Mariposas.flac
Size: 20615293 Hash: 405DCBB3354B94783C28EEA69752DCC3 Accuracy: -m0
Conclusion: CDDA 100%
Signature: 493301EA3C19BDD0E0C6B4CC74A3E74AF41939AF
FILE: 03 Nilo Espinosa - Think.flac
Size: 41501855 Hash: 4027CED8B0A3BFCA99187C991BA16BC9 Accuracy: -m0
Conclusion: CDDA 100%
Signature: 1E5D95E3B99ED7631715561186262B636360D7D9
FILE: 02 Nilo Espinosa - El Gato.flac
Size: 27006682 Hash: BCDB3729C1DECE5EE37F3368BED627BE Accuracy: -m0
Conclusion: CDDA 100%
Signature: D8804739CB8429A6BF341592CC00CF858E36D09D
FILE: 01 Nilo Espinosa - Reflexiones.flac
Size: 28305928 Hash: 82DA84B5D152C9A9A69CCAF81C9F9D7F Accuracy: -m0
Conclusion: CDDA 100%
Signature: 04812045E8C56D33803580D58403A50A68896523
02:18
286
Нет комментариев. Ваш будет первым!