Поиск

(Latin, Jazz-Funk, Easy Listening) La Nueva Banda De Santisteban - Sabor A Fresa - 2009, FLAC (tracks+.cue), lossless

(Latin, Jazz-Funk, Easy Listening) La Nueva Banda De Santisteban - Sabor A Fresa - 2009, FLAC (tracks+.cue), lossless
Треклист:
La Nueva Banda De Santisteban - Sabor A Fresa
Жанр: Latin, Jazz-Funk, Easy Listening
Страна-производитель диска: Spain
Год издания диска: 2009
Издатель (лейбл): Vampi Soul
Номер по каталогу: VAMPI CD 106
Аудиокодек: FLAC (*.flac)
Тип рипа: tracks+.cue
Битрейт аудио: lossless
Продолжительность: 33:04
Источник (релизер): wata
Наличие сканов в содержимом раздачи: нет
Треклист:
1 Sabor A Fresa 2:08
2 Brincadeira 2:39
3 Zorongo 2:24
4 Persecución 4:00
5 The Suitcase 2:13
6 Manías De María 1:44
7 No Te Acuerdas De Mí 2:04
8 Tierra Mojada 3:03
9 Un Día De Lluvia 1:59
10 Nuestro Ayer 2:10
11 Vuelve A Tu Ciudad 2:07
12 Limón Y Sal 3:07
13 Soledad 3:27
 
Лог создания рипа
X Lossless Decoder version 20100409 (117.2)
XLD extraction logfile from 2010-04-18 10:51:44 +0200
La Nueva Banda De Santisteban. / Sabor A Fresa
Used drive : MATSHITA DVD-R UJ-875 (revision DB09)
Use cdparanoia mode : YES (CDParanoia III 10.2 engine)
Disable audio cache : OK for the drive with cache less than 2750KB
Make use of C2 pointers : NO
Read offset correction : 102
Max retry count : 100
TOC of the extracted CD
Track | Start | Length | Start sector | End sector
---------------------------------------------------------
1 | 00:00:00 | 02:07:70 | 0 | 9594
2 | 02:07:70 | 02:39:03 | 9595 | 21522
3 | 04:46:73 | 02:23:51 | 21523 | 32298
4 | 07:10:49 | 03:59:72 | 32299 | 50295
5 | 11:10:46 | 02:12:61 | 50296 | 60256
6 | 13:23:32 | 01:44:27 | 60257 | 68083
7 | 15:07:59 | 02:04:24 | 68084 | 77407
8 | 17:12:08 | 03:02:39 | 77408 | 91096
9 | 20:14:47 | 01:58:70 | 91097 | 100016
10 | 22:13:42 | 02:10:12 | 100017 | 109778
11 | 24:23:54 | 02:06:38 | 109779 | 119266
12 | 26:30:17 | 03:06:50 | 119267 | 133266
13 | 29:36:67 | 03:27:10 | 133267 | 148801
Track 01
Filename : /Volumes/LaCie/musique/lossless/La Nueva Banda De Santisteban - Sabor A Fresa (Spain 1970-71 - Vampisoul 2009 CD) FLAC/01 La Nueva Banda De Santisteban. - Sabor A Fresa.flac
Pre-gap length : 00:02:00
CRC32 hash (test run) : 4DC5F12E
CRC32 hash : 4DC5F12E
CRC32 hash (skip zero) : 6D94B2A5
AccurateRip signature : 140B6478
->Track not present in AccurateRip database.
Statistics
Read error : 0
Skipped (treated as error) : 0
Edge jitter error (maybe fixed) : 0
Atom jitter error (maybe fixed) : 0
Drift error (maybe fixed) : 0
Dropped bytes error (maybe fixed) : 0
Duplicated bytes error (maybe fixed) : 0
Inconsistency in error sectors : 0
Track 02
Filename : /Volumes/LaCie/musique/lossless/La Nueva Banda De Santisteban - Sabor A Fresa (Spain 1970-71 - Vampisoul 2009 CD) FLAC/02 La Nueva Banda De Santisteban. - Brincadeira.flac
Pre-gap length : 00:01:68
CRC32 hash (test run) : DCC67561
CRC32 hash : DCC67561
CRC32 hash (skip zero) : 99E12BC9
AccurateRip signature : C86497F3
->Track not present in AccurateRip database.
Statistics
Read error : 0
Skipped (treated as error) : 0
Edge jitter error (maybe fixed) : 0
Atom jitter error (maybe fixed) : 0
Drift error (maybe fixed) : 0
Dropped bytes error (maybe fixed) : 0
Duplicated bytes error (maybe fixed) : 0
Inconsistency in error sectors : 0
Track 03
Filename : /Volumes/LaCie/musique/lossless/La Nueva Banda De Santisteban - Sabor A Fresa (Spain 1970-71 - Vampisoul 2009 CD) FLAC/03 La Nueva Banda De Santisteban. - Zorongo.flac
Pre-gap length : 00:02:07
CRC32 hash (test run) : 1FDA9C28
CRC32 hash : 1FDA9C28
CRC32 hash (skip zero) : 63991D9C
AccurateRip signature : 23F291BF
->Track not present in AccurateRip database.
Statistics
Read error : 0
Skipped (treated as error) : 0
Edge jitter error (maybe fixed) : 0
Atom jitter error (maybe fixed) : 0
Drift error (maybe fixed) : 0
Dropped bytes error (maybe fixed) : 0
Duplicated bytes error (maybe fixed) : 0
Inconsistency in error sectors : 0
Track 04
Filename : /Volumes/LaCie/musique/lossless/La Nueva Banda De Santisteban - Sabor A Fresa (Spain 1970-71 - Vampisoul 2009 CD) FLAC/04 La Nueva Banda De Santisteban. - Persecución.flac
Pre-gap length : 00:02:17
CRC32 hash (test run) : CDC733D9
CRC32 hash : CDC733D9
CRC32 hash (skip zero) : 29BA48F9
AccurateRip signature : 2A2CDB0B
->Track not present in AccurateRip database.
Statistics
Read error : 0
Skipped (treated as error) : 0
Edge jitter error (maybe fixed) : 0
Atom jitter error (maybe fixed) : 0
Drift error (maybe fixed) : 0
Dropped bytes error (maybe fixed) : 0
Duplicated bytes error (maybe fixed) : 0
Inconsistency in error sectors : 0
Track 05
Filename : /Volumes/LaCie/musique/lossless/La Nueva Banda De Santisteban - Sabor A Fresa (Spain 1970-71 - Vampisoul 2009 CD) FLAC/05 La Nueva Banda De Santisteban. - The Suitcase.flac
Pre-gap length : 00:02:00
CRC32 hash (test run) : DA5BCF72
CRC32 hash : DA5BCF72
CRC32 hash (skip zero) : 9B109947
AccurateRip signature : 827D74C4
->Track not present in AccurateRip database.
Statistics
Read error : 0
Skipped (treated as error) : 0
Edge jitter error (maybe fixed) : 0
Atom jitter error (maybe fixed) : 0
Drift error (maybe fixed) : 0
Dropped bytes error (maybe fixed) : 0
Duplicated bytes error (maybe fixed) : 0
Inconsistency in error sectors : 0
Track 06
Filename : /Volumes/LaCie/musique/lossless/La Nueva Banda De Santisteban - Sabor A Fresa (Spain 1970-71 - Vampisoul 2009 CD) FLAC/06 La Nueva Banda De Santisteban. - Manías De María.flac
Pre-gap length : 00:02:06
CRC32 hash (test run) : 926B6521
CRC32 hash : 926B6521
CRC32 hash (skip zero) : 0FB28643
AccurateRip signature : D7A17869
->Track not present in AccurateRip database.
Statistics
Read error : 0
Skipped (treated as error) : 0
Edge jitter error (maybe fixed) : 0
Atom jitter error (maybe fixed) : 0
Drift error (maybe fixed) : 0
Dropped bytes error (maybe fixed) : 0
Duplicated bytes error (maybe fixed) : 0
Inconsistency in error sectors : 0
Track 07
Filename : /Volumes/LaCie/musique/lossless/La Nueva Banda De Santisteban - Sabor A Fresa (Spain 1970-71 - Vampisoul 2009 CD) FLAC/07 La Nueva Banda De Santisteban. - No Te Acuerdas De Mí.flac
Pre-gap length : 00:02:02
CRC32 hash (test run) : 22312FF1
CRC32 hash : 22312FF1
CRC32 hash (skip zero) : 2CCFB04A
AccurateRip signature : 06F6D138
->Track not present in AccurateRip database.
Statistics
Read error : 0
Skipped (treated as error) : 0
Edge jitter error (maybe fixed) : 0
Atom jitter error (maybe fixed) : 0
Drift error (maybe fixed) : 0
Dropped bytes error (maybe fixed) : 0
Duplicated bytes error (maybe fixed) : 0
Inconsistency in error sectors : 0
Track 08
Filename : /Volumes/LaCie/musique/lossless/La Nueva Banda De Santisteban - Sabor A Fresa (Spain 1970-71 - Vampisoul 2009 CD) FLAC/08 La Nueva Banda De Santisteban. - Tierra Mojada.flac
Pre-gap length : 00:02:10
CRC32 hash (test run) : 1D2B7EF5
CRC32 hash : 1D2B7EF5
CRC32 hash (skip zero) : 1B599514
AccurateRip signature : 68E37D65
->Track not present in AccurateRip database.
Statistics
Read error : 0
Skipped (treated as error) : 0
Edge jitter error (maybe fixed) : 0
Atom jitter error (maybe fixed) : 0
Drift error (maybe fixed) : 0
Dropped bytes error (maybe fixed) : 0
Duplicated bytes error (maybe fixed) : 0
Inconsistency in error sectors : 0
Track 09
Filename : /Volumes/LaCie/musique/lossless/La Nueva Banda De Santisteban - Sabor A Fresa (Spain 1970-71 - Vampisoul 2009 CD) FLAC/09 La Nueva Banda De Santisteban. - Un Día De Lluvia.flac
Pre-gap length : 00:02:16
CRC32 hash (test run) : 9739EFEA
CRC32 hash : 9739EFEA
CRC32 hash (skip zero) : 4F7FEE88
AccurateRip signature : FC068DB5
->Track not present in AccurateRip database.
Statistics
Read error : 0
Skipped (treated as error) : 0
Edge jitter error (maybe fixed) : 0
Atom jitter error (maybe fixed) : 0
Drift error (maybe fixed) : 0
Dropped bytes error (maybe fixed) : 0
Duplicated bytes error (maybe fixed) : 0
Inconsistency in error sectors : 0
Track 10
Filename : /Volumes/LaCie/musique/lossless/La Nueva Banda De Santisteban - Sabor A Fresa (Spain 1970-71 - Vampisoul 2009 CD) FLAC/10 La Nueva Banda De Santisteban. - Nuestro Ayer.flac
Pre-gap length : 00:02:05
CRC32 hash (test run) : F71A5FDC
CRC32 hash : F71A5FDC
CRC32 hash (skip zero) : 4B643D2A
AccurateRip signature : BC3CB731
->Track not present in AccurateRip database.
Statistics
Read error : 0
Skipped (treated as error) : 0
Edge jitter error (maybe fixed) : 0
Atom jitter error (maybe fixed) : 0
Drift error (maybe fixed) : 0
Dropped bytes error (maybe fixed) : 0
Duplicated bytes error (maybe fixed) : 0
Inconsistency in error sectors : 0
Track 11
Filename : /Volumes/LaCie/musique/lossless/La Nueva Banda De Santisteban - Sabor A Fresa (Spain 1970-71 - Vampisoul 2009 CD) FLAC/11 La Nueva Banda De Santisteban. - Vuelve A Tu Ciudad.flac
Pre-gap length : 00:02:06
CRC32 hash (test run) : E419A4B5
CRC32 hash : E419A4B5
CRC32 hash (skip zero) : 5AEF320E
AccurateRip signature : 2F5DE465
->Track not present in AccurateRip database.
Statistics
Read error : 0
Skipped (treated as error) : 0
Edge jitter error (maybe fixed) : 0
Atom jitter error (maybe fixed) : 0
Drift error (maybe fixed) : 0
Dropped bytes error (maybe fixed) : 0
Duplicated bytes error (maybe fixed) : 0
Inconsistency in error sectors : 0
Track 12
Filename : /Volumes/LaCie/musique/lossless/La Nueva Banda De Santisteban - Sabor A Fresa (Spain 1970-71 - Vampisoul 2009 CD) FLAC/12 La Nueva Banda De Santisteban. - Limón Y Sal.flac
Pre-gap length : 00:02:00
CRC32 hash (test run) : EA7F14C7
CRC32 hash : EA7F14C7
CRC32 hash (skip zero) : 566CE769
AccurateRip signature : 16E652C3
->Track not present in AccurateRip database.
Statistics
Read error : 0
Skipped (treated as error) : 0
Edge jitter error (maybe fixed) : 0
Atom jitter error (maybe fixed) : 0
Drift error (maybe fixed) : 0
Dropped bytes error (maybe fixed) : 0
Duplicated bytes error (maybe fixed) : 0
Inconsistency in error sectors : 0
Track 13
Filename : /Volumes/LaCie/musique/lossless/La Nueva Banda De Santisteban - Sabor A Fresa (Spain 1970-71 - Vampisoul 2009 CD) FLAC/13 La Nueva Banda De Santisteban. - Soledad.flac
Pre-gap length : 00:02:10
CRC32 hash (test run) : 44828562
CRC32 hash : 44828562
CRC32 hash (skip zero) : 46E85DDF
AccurateRip signature : 72647931
->Track not present in AccurateRip database.
Statistics
Read error : 0
Skipped (treated as error) : 0
Edge jitter error (maybe fixed) : 0
Atom jitter error (maybe fixed) : 0
Drift error (maybe fixed) : 0
Dropped bytes error (maybe fixed) : 0
Duplicated bytes error (maybe fixed) : 0
Inconsistency in error sectors : 0
No errors occurred
End of status report
 
Содержание индексной карты (.CUE)
TITLE "Sabor A Fresa"
PERFORMER "La Nueva Banda De Santisteban."
REM GENRE "Jazz"
REM DATE 1971
FILE "01 La Nueva Banda De Santisteban. - Sabor A Fresa.wav" WAVE
TRACK 01 AUDIO
TITLE "Sabor A Fresa"
SONGWRITER "Alfonso Santisteban"
ISRC ES7450800083
INDEX 01 00:00:00
TRACK 02 AUDIO
TITLE "Brincadeira"
SONGWRITER "Alfonso Santisteban"
ISRC ES7450800084
INDEX 00 02:06:02
FILE "02 La Nueva Banda De Santisteban. - Brincadeira.wav" WAVE
INDEX 01 00:00:00
TRACK 03 AUDIO
TITLE "Zorongo"
SONGWRITER "Alfonso Santisteban"
ISRC ES7450800085
INDEX 00 02:36:71
FILE "03 La Nueva Banda De Santisteban. - Zorongo.wav" WAVE
INDEX 01 00:00:00
TRACK 04 AUDIO
TITLE "Persecución"
SONGWRITER "Alfonso Santisteban"
ISRC ES7450800086
INDEX 00 02:21:34
FILE "04 La Nueva Banda De Santisteban. - Persecución.wav" WAVE
INDEX 01 00:00:00
TRACK 05 AUDIO
TITLE "The Suitcase"
SONGWRITER "Alfonso Santisteban"
ISRC ES7450800087
INDEX 00 03:57:72
FILE "05 La Nueva Banda De Santisteban. - The Suitcase.wav" WAVE
INDEX 01 00:00:00
TRACK 06 AUDIO
TITLE "Manías De María"
SONGWRITER "Alfonso Santisteban"
ISRC ES7450800088
INDEX 00 02:10:55
FILE "06 La Nueva Banda De Santisteban. - Manías De María.wav" WAVE
INDEX 01 00:00:00
TRACK 07 AUDIO
TITLE "No Te Acuerdas De Mí"
SONGWRITER "Alfonso Santisteban"
ISRC ES7450800089
INDEX 00 01:42:25
FILE "07 La Nueva Banda De Santisteban. - No Te Acuerdas De Mí.wav" WAVE
INDEX 01 00:00:00
TRACK 08 AUDIO
TITLE "Tierra Mojada"
SONGWRITER "Alfonso Santisteban"
ISRC ES7450800090
INDEX 00 02:02:14
FILE "08 La Nueva Banda De Santisteban. - Tierra Mojada.wav" WAVE
INDEX 01 00:00:00
TRACK 09 AUDIO
TITLE "Un Día De Lluvia"
SONGWRITER "Alfonso Santisteban"
ISRC ES7450800091
INDEX 00 03:00:23
FILE "09 La Nueva Banda De Santisteban. - Un Día De Lluvia.wav" WAVE
INDEX 01 00:00:00
TRACK 10 AUDIO
TITLE "Nuestro Ayer"
SONGWRITER "Alfonso Santisteban"
ISRC ES7450800092
INDEX 00 01:56:65
FILE "10 La Nueva Banda De Santisteban. - Nuestro Ayer.wav" WAVE
INDEX 01 00:00:00
TRACK 11 AUDIO
TITLE "Vuelve A Tu Ciudad"
SONGWRITER "Alfonso Santisteban"
ISRC ES7450800093
INDEX 00 02:08:06
FILE "11 La Nueva Banda De Santisteban. - Vuelve A Tu Ciudad.wav" WAVE
INDEX 01 00:00:00
TRACK 12 AUDIO
TITLE "Limón Y Sal"
SONGWRITER "Alfonso Santisteban"
ISRC ES7450800094
INDEX 00 02:04:38
FILE "12 La Nueva Banda De Santisteban. - Limón Y Sal.wav" WAVE
INDEX 01 00:00:00
TRACK 13 AUDIO
TITLE "Soledad"
SONGWRITER "Alfonso Santisteban"
ISRC ES7450800095
INDEX 00 03:04:40
FILE "13 La Nueva Banda De Santisteban. - Soledad.wav" WAVE
INDEX 01 00:00:00
02:19
321
Нет комментариев. Ваш будет первым!