Поиск

(Brazilian Jazz/Big Band) Duduka Da Fonseca - Samba Jazz Fantasia - 2008 (with Maucha Adnet,John Scofield,Romero Lubambo,Joe Lovano,Helio Alves), APE (image+.cue), lossless

(Brazilian Jazz/Big Band) Duduka Da Fonseca - Samba Jazz Fantasia - 2008 (with Maucha Adnet,John Scofield,Romero Lubambo,Joe Lovano,Helio Alves), APE (image+.cue), lossless
Duduka Da Fonseca - Samba Jazz Fantasia
Жанр: Brazilian Jazz/Big Band
Страна-производитель диска: USA
Год издания диска: 2008
Издатель (лейбл): Anzic Records
Номер по каталогу: ANZ-3101
Страна: Brazil
Аудиокодек: APE (*.ape)
Тип рипа: image+.cue
Битрейт аудио: lossless
Продолжительность: 01:08:00
Источник (релизер): Диск из личной коллекции
Наличие сканов в содержимом раздачи: да
Треклист:
1. Partido Out (Chico Adnet - Duduka Da Fonseca) (5'35)
2. Terrestris (Tom Harrell) (6'26)
3. Sco's Bossa (John Scofield) (6'04)
4. Bala Com Bala (Joao Bosco) (5'37)
5. Pedra Bonita (Mario Adnet) (5'49)
6. Dona Maria (Duduka Da Fonseca) (6'09)
7. Saveiros (Dori Caymmi - Nelson Motta) (5'12)
8. Song for Claudio (Helio Alves) (5'43)
9. Berimbau Fantasia (Duduka Da Fonseca) (2'17)
10. Pro Flavio (Romero Lubambo) (8'19)
11. Fotographia (Antonio Carlos Jobim) (4'44)
12. Manhattan Style (Duduka Da Fonseca) (6'41)
 
Лог создания рипа
Exact Audio Copy V0.99 prebeta 4 from 23. January 2008
Отчёт EAC об извлечении, выполненном 24. января 2012, 19:07
Duduka Da Fonseca / Samba - Jazz - Fantasia
Дисковод: HL-DT-STDVDRAM GH20LS10 Adapter: 3 ID: 1
Режим чтения : Достоверность
Использование точного потока : Да
Отключение кэша аудио : Да
Использование указателей C2 : Нет
Коррекция смещения при чтении : 667
Способность читать области Lead-in и Lead-out : Нет
Заполнение пропущенных сэмплов тишиной : Да
Удаление блоков с тишиной в начале и конце : Нет
При вычислениях CRC использовались нулевые сэмплы : Да
Интерфейс : Встроенный Win32-интерфейс для Win NT/2000
Выходной формат : Внутренние WAV-операции
Формат сэмплов : 44.100 Гц; 16 бит; стерео
TOC извлечённого CD
Трек | Старт | Длительность | Начальный сектор | Конечный сектор
---------------------------------------------------------------------
1 | 0:00.00 | 5:35.64 | 0 | 25188
2 | 5:35.64 | 6:26.54 | 25189 | 54192
3 | 12:02.43 | 6:04.73 | 54193 | 81565
4 | 18:07.41 | 5:37.66 | 81566 | 106906
5 | 23:45.32 | 5:49.26 | 106907 | 133107
6 | 29:34.58 | 6:10.30 | 133108 | 160887
7 | 35:45.13 | 5:12.49 | 160888 | 184336
8 | 40:57.62 | 5:44.30 | 184337 | 210166
9 | 46:42.17 | 2:17.42 | 210167 | 220483
10 | 48:59.59 | 8:19.63 | 220484 | 257971
11 | 57:19.47 | 4:44.00 | 257972 | 279271
12 | 62:03.47 | 6:41.64 | 279272 | 309410
Характеристики диапазона извлечения и сообщения об ошибках
Выбранный диапазон
Имя файла D:\Lossless\Duduka Da Fonseca - Samba Jazz Fantasia-2008\Duduka Da Fonseca - Samba - Jazz - Fantasia.wav
Пиковый уровень 99.9 %
Качество диапазона 100.0 %
CRC теста C23FB2DD
CRC копии C23FB2DD
Копирование... OK
Ошибок не произошло
AccurateRip: сводка
Трек 1 нет в базе данных
Трек 2 нет в базе данных
Трек 3 нет в базе данных
Трек 4 нет в базе данных
Трек 5 нет в базе данных
Трек 6 нет в базе данных
Трек 7 нет в базе данных
Трек 8 нет в базе данных
Трек 9 нет в базе данных
Трек 10 нет в базе данных
Трек 11 нет в базе данных
Трек 12 нет в базе данных
Ни одного трека нет в базе AccurateRip
Конец отчёта
 
Содержание индексной карты (.CUE)
REM GENRE Brazilian
REM DATE 2002
REM DISCID AE101D0C
REM COMMENT "ExactAudioCopy v0.99pb4"
PERFORMER "Duduka Da Fonseca"
TITLE "Samba - Jazz - Fantasia"
FILE "Duduka Da Fonseca - Samba - Jazz - Fantasia.wav" WAVE
TRACK 01 AUDIO
TITLE "Partido Out (Chico Adnet - Duduka Da Fonseca)"
PERFORMER "Duduka Da Fonseca"
INDEX 01 00:00:00
TRACK 02 AUDIO
TITLE "Terrestris (Tom Harrell)"
PERFORMER "Duduka Da Fonseca"
INDEX 01 05:35:64
TRACK 03 AUDIO
TITLE "Sco's Bossa (John Scofield)"
PERFORMER "Duduka Da Fonseca"
INDEX 01 12:02:43
TRACK 04 AUDIO
TITLE "Bala Com Bala (Joao Bosco)"
PERFORMER "Duduka Da Fonseca"
INDEX 01 18:07:41
TRACK 05 AUDIO
TITLE "Pedra Bonita (Mario Adnet)"
PERFORMER "Duduka Da Fonseca"
INDEX 01 23:45:32
TRACK 06 AUDIO
TITLE "Dona Maria (Duduka Da Fonseca)"
PERFORMER "Duduka Da Fonseca"
INDEX 01 29:34:58
TRACK 07 AUDIO
TITLE "Saveiros (Dori Caymmi - Nelson Motta)"
PERFORMER "Duduka Da Fonseca"
INDEX 01 35:45:13
TRACK 08 AUDIO
TITLE "Song for Claudio (Helio Alves)"
PERFORMER "Duduka Da Fonseca"
INDEX 01 40:57:62
TRACK 09 AUDIO
TITLE "Berimbau Fantasia (Duduka Da Fonseca)"
PERFORMER "Duduka Da Fonseca"
INDEX 01 46:42:17
TRACK 10 AUDIO
TITLE "Pro Flavio (Romero Lubambo)"
PERFORMER "Duduka Da Fonseca"
INDEX 01 48:59:59
TRACK 11 AUDIO
TITLE "Fotographia (Antonio Carlos Jobim)"
PERFORMER "Duduka Da Fonseca"
INDEX 01 57:19:47
TRACK 12 AUDIO
TITLE "Manhattan Style (Duduka Da Fonseca)"
PERFORMER "Duduka Da Fonseca"
INDEX 01 62:03:47
 
Об исполнителе (группе)
Дудука да Фонсека родился в Рио-де-Жанейро, начал играть на барабанах в 13 лет. В 15 он уже записывался с известными бразильскими музыкантами - Cesarius Alvim, Mario Adnet, Ion Muniz, Paulo Jobim, Jacques Morelenbaum и Grupo Mandengo. В 1975 году Дудука переехал в Нью-Йорк, играл в группах Brazilian Express, New York Samba Band, с которыми выступал в Blue Note, Fat Tuesday's, Village Gate и других известных американских клубах. Дудука является одним из лидеров Trio da Paz, получившего премию Jazz Journalists Association Awards за альбом 2002 года "Pardido Out". Дудука выступал и записывался с Antonio Carlos Jobim, Astrud Gilberto, Herbie Mann, Claudio Roditi, Joanne Brackeen, Eddie Gomez, John Scofield, Joe Henderson, Gerry Mulligan, Jorge Dalto, Dom Salvador, Toshiko Akiyoshi, Lee Konitz, Phil Woods, Emily Remler, Nana Vasconcelos, Nancy Wilson, Slide Hampton, Kenny Barron, Tom Harrell, Wayne Shorter и многих других музыкантов. С 1984года да Фонсека преподает курс Drummer's Collective в Нью-Йорке. Он также проводил мастер классы в Европе, Японии и Бразилии. Он автор учебного курса "Brazilian Rhythms for Drumset" (состоящего из книги и диска). Для записи своего первого сольного альбома "Samba Jazz Fantasia" Дудука да Фонсека пригласил пианиста Хелио Альвеса. Пластинка номинировалась на "Грэмми" как лучший альбом латинского джаза 2003 года. Представленный релиз не является сложным импровизированным джазом, формы которого по вкусу современным латинским джазменам, но по-любому украсит вашу коллекцию, ибо сыгран просто шикарно, с огромным вкусом, качество записи великолепное!
 
Состав
Vocals - Maucha Adnet, Alana Da Fonseca, Isobella Adnet Da Fonseca & Lisa Ono
Trombone - Jay Ashby
Trumpet - Claudio Roditi
Flugel Horn - Tom Harrell
Saxs - Billy Drewes, Joe Lovano, Richard Perry, David Sanchez
Piano - Helio Alves, Dom Salvador, Marc Copland, Kenny Werner
Guitar - John Scofield
Acoustic Guitar - Romero Lubambo
Bass - Eddie Gomez, Dennis Irwin, Nilson Matta
Percussion - Valtinho Anastacio
Drums and Cuica - Duduka Da Fonseca
02:17
551
Нет комментариев. Ваш будет первым!