Поиск

(Ethnic Jazz, Latin Jazz) Gato Barbieri - The Shadow Of The Cat - 2002, FLAC (tracks+.cue), lossless

(Ethnic Jazz, Latin Jazz) Gato Barbieri - The Shadow Of The Cat - 2002, FLAC (tracks+.cue), lossless
Треклист:
•Gato Barbieri - The Shadow Of The Cat•
Жанр: Ethnic Jazz, Latin Jazz
Страна-производитель диска: USA
Год издания диска: 2002
Издатель (лейбл): Peak Records
Номер по каталогу: PKD-8509-2
Аудиокодек: FLAC (*.flac)
Тип рипа: tracks+.cue
Битрейт аудио: lossless
Продолжительность: 00:58:20
Источник (релизер): Рип с диска.
Наличие сканов в содержимом раздачи: да
Треклист:
01. El Chico
02. Shadow Of The Cat, The
03. Last Kiss
04. If I Was Your Woman
05. Tierra Del Fuego (Land Of Fire)
06. Beautiful Walk
07. Ai Ai Ai Ai Ai
08. Bliss
09. Para Todos
10. Blue Habanera
11. Last Tango (Theme From Last Tango In Paris)
12. Si Tu Me Quisieras (It I Was Your Woman)
 
Лог создания рипа
Exact Audio Copy V1.0 beta 3 from 29. August 2011
Отчёт EAC об извлечении, выполненном 27. января 2012, 14:39
Gato Barbieri / The Shadow Of The Cat
Дисковод: TSSTcorpCDDVDW SH-S223C Adapter: 5 ID: 0
Режим чтения : Достоверность
Использование точного потока : Да
Отключение кэша аудио : Да
Использование указателей C2 : Нет
Коррекция смещения при чтении : 697
Способность читать области Lead-in и Lead-out : Нет
Заполнение пропущенных сэмплов тишиной : Да
Удаление блоков с тишиной в начале и конце : Нет
При вычислениях CRC использовались нулевые сэмплы : Да
Интерфейс : Установленный внешний ASPI-интерфейс
Обработка зазоров : Добавлено к предыдущему треку
Выходной формат : Пользовательский кодировщик
Выбранный битрейт : 128 kBit/s
Качество : Высокий
Добавление ID3-тега : Нет
Утилита сжатия : C:\Program Files\Exact Audio Copy\Flac\flac.exe
Дополнительные параметры : -V -8 -T "Genre=%genre%" -T "Artist=%artist%" -T "Title=%title%" -T "Album=%albumtitle%" -T "Date=%year%" -T "Tracknumber=%tracknr%" -T "Comment=%comment%" %source%
TOC извлечённого CD
Трек | Старт | Длительность | Начальный сектор | Конечный сектор
---------------------------------------------------------------------
1 | 0:00.00 | 5:00.22 | 0 | 22521
2 | 5:00.22 | 5:18.63 | 22522 | 46434
3 | 10:19.10 | 5:12.72 | 46435 | 69906
4 | 15:32.07 | 4:36.55 | 69907 | 90661
5 | 20:08.62 | 5:03.38 | 90662 | 113424
6 | 25:12.25 | 5:18.55 | 113425 | 137329
7 | 30:31.05 | 4:49.65 | 137330 | 159069
8 | 35:20.70 | 5:05.07 | 159070 | 181951
9 | 40:26.02 | 4:37.40 | 181952 | 202766
10 | 45:03.42 | 3:59.35 | 202767 | 220726
11 | 49:03.02 | 4:41.33 | 220727 | 241834
12 | 53:44.35 | 4:36.37 | 241835 | 262571
Трек 1
Имя файла C:\Шахматы\2002.Gato Barbieri - The Shadow Of The Cat\01. El Chico.wav
Длина предзазора 0:00:02.00
Пиковый уровень 98.8 %
Скорость извлечения 2.0 X
Качество трека 100.0 %
CRC теста 193F730F
CRC копии 193F730F
Точное извлечение (достоверность 2) [C90104D4] (AR v1)
Копирование... OK
Трек 2
Имя файла C:\Шахматы\2002.Gato Barbieri - The Shadow Of The Cat\02. The Shadow Of The Cat.wav
Пиковый уровень 98.8 %
Скорость извлечения 2.4 X
Качество трека 100.0 %
CRC теста 4E70180C
CRC копии 4E70180C
Точное извлечение (достоверность 2) [92003DEA] (AR v1)
Копирование... OK
Трек 3
Имя файла C:\Шахматы\2002.Gato Barbieri - The Shadow Of The Cat\03. Last Kiss.wav
Пиковый уровень 98.8 %
Скорость извлечения 2.6 X
Качество трека 100.0 %
CRC теста 8DDC9E26
CRC копии 8DDC9E26
Точное извлечение (достоверность 2) [7137261B] (AR v1)
Копирование... OK
Трек 4
Имя файла C:\Шахматы\2002.Gato Barbieri - The Shadow Of The Cat\04. If I Was Your Woman.wav
Пиковый уровень 98.8 %
Скорость извлечения 2.8 X
Качество трека 100.0 %
CRC теста 855A63AD
CRC копии 855A63AD
Точное извлечение (достоверность 2) [E083F30B] (AR v1)
Копирование... OK
Трек 5
Имя файла C:\Шахматы\2002.Gato Barbieri - The Shadow Of The Cat\05. Tierra Del Fuego (Land Of Fire).wav
Пиковый уровень 100.0 %
Скорость извлечения 3.0 X
Качество трека 100.0 %
CRC теста 057BC589
CRC копии 057BC589
Точное извлечение (достоверность 2) [1C676AF5] (AR v1)
Копирование... OK
Трек 6
Имя файла C:\Шахматы\2002.Gato Barbieri - The Shadow Of The Cat\06. Beautiful Walk.wav
Пиковый уровень 98.8 %
Скорость извлечения 2.9 X
Качество трека 99.9 %
CRC теста 16920D5F
CRC копии 16920D5F
Точное извлечение (достоверность 2) [0F7F763C] (AR v1)
Копирование... OK
Трек 7
Имя файла C:\Шахматы\2002.Gato Barbieri - The Shadow Of The Cat\07. Ai Ai Ai Ai.wav
Пиковый уровень 98.8 %
Скорость извлечения 3.4 X
Качество трека 100.0 %
CRC теста 0AB1F2FE
CRC копии 0AB1F2FE
Точное извлечение (достоверность 2) [EBF49A35] (AR v1)
Копирование... OK
Трек 8
Имя файла C:\Шахматы\2002.Gato Barbieri - The Shadow Of The Cat\08. Bliss.wav
Пиковый уровень 98.8 %
Скорость извлечения 3.2 X
Качество трека 99.9 %
CRC теста 068634D3
CRC копии 068634D3
Точное извлечение (достоверность 2) [2BCDFF66] (AR v1)
Копирование... OK
Трек 9
Имя файла C:\Шахматы\2002.Gato Barbieri - The Shadow Of The Cat\09. Para Todos (For Everyone).wav
Длина предзазора 0:00:01.17
Пиковый уровень 98.8 %
Скорость извлечения 3.3 X
Качество трека 99.9 %
CRC теста A3C7E5D1
CRC копии A3C7E5D1
Точное извлечение (достоверность 2) [C09C70DE] (AR v1)
Копирование... OK
Трек 10
Имя файла C:\Шахматы\2002.Gato Barbieri - The Shadow Of The Cat\10. Blue Habanera.wav
Пиковый уровень 98.8 %
Скорость извлечения 3.7 X
Качество трека 100.0 %
CRC теста A585DE04
CRC копии A585DE04
Точное извлечение (достоверность 2) [0296C3B3] (AR v1)
Копирование... OK
Трек 11
Имя файла C:\Шахматы\2002.Gato Barbieri - The Shadow Of The Cat\11. Last Tango (Theme From Last Tango in Paris).wav
Пиковый уровень 98.8 %
Скорость извлечения 3.9 X
Качество трека 100.0 %
CRC теста E0E996E9
CRC копии E0E996E9
Точное извлечение (достоверность 2) [A22B0E19] (AR v1)
Копирование... OK
Трек 12
Имя файла C:\Шахматы\2002.Gato Barbieri - The Shadow Of The Cat\12. Si Tu Me Quisieras (If I Was Your Woman).wav
Пиковый уровень 98.8 %
Скорость извлечения 4.0 X
Качество трека 100.0 %
CRC теста B6D6590C
CRC копии B6D6590C
Точное извлечение (достоверность 2) [E39E14B3] (AR v1)
Копирование... OK
Все треки извлечены точно
Ошибок не произошло
Конец отчёта
==== Контрольная сумма отчёта 3499BDC013382C24088E4EE67497C53C29B547697BC3A11B4E37287E0C678893 ====
 
Содержание индексной карты (.CUE)
REM GENRE Jazz
REM DATE 2002
REM DISCID 840DAC0C
REM COMMENT "ExactAudioCopy v1.0b3"
PERFORMER "Gato Barbieri"
TITLE "The Shadow Of The Cat"
FILE "01. El Chico.wav" WAVE
TRACK 01 AUDIO
TITLE "El Chico"
PERFORMER "Gato Barbieri"
INDEX 01 00:00:00
FILE "02. The Shadow Of The Cat.wav" WAVE
TRACK 02 AUDIO
TITLE "The Shadow Of The Cat"
PERFORMER "Gato Barbieri"
INDEX 01 00:00:00
FILE "03. Last Kiss.wav" WAVE
TRACK 03 AUDIO
TITLE "Last Kiss"
PERFORMER "Gato Barbieri"
INDEX 01 00:00:00
FILE "04. If I Was Your Woman.wav" WAVE
TRACK 04 AUDIO
TITLE "If I Was Your Woman"
PERFORMER "Gato Barbieri"
INDEX 01 00:00:00
FILE "05. Tierra Del Fuego (Land Of Fire).wav" WAVE
TRACK 05 AUDIO
TITLE "Tierra Del Fuego (Land Of Fire)"
PERFORMER "Gato Barbieri"
INDEX 01 00:00:00
FILE "06. Beautiful Walk.wav" WAVE
TRACK 06 AUDIO
TITLE "Beautiful Walk"
PERFORMER "Gato Barbieri"
INDEX 01 00:00:00
FILE "07. Ai Ai Ai Ai.wav" WAVE
TRACK 07 AUDIO
TITLE "Ai Ai Ai Ai"
PERFORMER "Gato Barbieri"
INDEX 01 00:00:00
FILE "08. Bliss.wav" WAVE
TRACK 08 AUDIO
TITLE "Bliss"
PERFORMER "Gato Barbieri"
INDEX 01 00:00:00
TRACK 09 AUDIO
TITLE "Para Todos (For Everyone)"
PERFORMER "Gato Barbieri"
INDEX 00 05:03:65
FILE "09. Para Todos (For Everyone).wav" WAVE
INDEX 01 00:00:00
FILE "10. Blue Habanera.wav" WAVE
TRACK 10 AUDIO
TITLE "Blue Habanera"
PERFORMER "Gato Barbieri"
INDEX 01 00:00:00
FILE "11. Last Tango (Theme From Last Tango in Paris).wav" WAVE
TRACK 11 AUDIO
TITLE "Last Tango (Theme From Last Tango in Paris)"
PERFORMER "Gato Barbieri"
INDEX 01 00:00:00
FILE "12. Si Tu Me Quisieras (If I Was Your Woman).wav" WAVE
TRACK 12 AUDIO
TITLE "Si Tu Me Quisieras (If I Was Your Woman)"
PERFORMER "Gato Barbieri"
INDEX 01 00:00:00
01:17
370
Нет комментариев. Ваш будет первым!