Поиск

(Latin Jazz) Dave Pike - The Doors Of Perception (1970) - 2007, FLAC (tracks+.cue), lossless

(Latin Jazz) Dave Pike - The Doors Of Perception (1970) - 2007, FLAC (tracks+.cue), lossless
Треклист:
Dave Pike / The Doors Of Perception (1970)
Жанр: Latin Jazz
Год издания: 2007
Издатель (лейбл): Wounded Bird Records
Номер по каталогу: WOU 2007
Аудиокодек: FLAC (*.flac)
Тип рипа: tracks+.cue
Битрейт аудио: lossless
Продолжительность: 27:14
Источник (релизер): ruskaval
Наличие сканов в содержимом раздачи: да
Треклист:
01. Free Improvisation (3:09)
02. The Drifter (7:15)
03. The Doors Of Perception (3:32)
04. Ballad (5:16)
05. Anticipation (8:01)
 
 
Лог создания рипа
Exact Audio Copy V0.99 prebeta 5 from 4. May 2009
EAC extraction logfile from 18. June 2010, 19:20
Dave Pike / The Doors Of Perception
Used drive : TSSTcorpCDDVDW SH-S203N Adapter: 0 ID: 2
Read mode : Secure
Utilize accurate stream : Yes
Defeat audio cache : Yes
Make use of C2 pointers : No
Read offset correction : 6
Overread into Lead-In and Lead-Out : No
Fill up missing offset samples with silence : Yes
Delete leading and trailing silent blocks : No
Null samples used in CRC calculations : Yes
Used interface : Installed external ASPI interface
Gap handling : Appended to previous track
Used output format : User Defined Encoder
Selected bitrate : 768 kBit/s
Quality : High
Add ID3 tag : No
Command line compressor : C:\Program Files\Exact Audio Copy\Flac\flac.exe
Additional command line options : -8 -V -T "ARTIST=%a" -T "TITLE=%t" -T "ALBUM=%g" -T "DATE=%y" -T "TRACKNUMBER=%n" -T "TOTALTRACKS=%x" -T "GENRE=%m" -T "ALBUMARTIST=%v" -T "ALBUM ARTIST=%v" -T "COMMENT=EAC V0.99 pb5, Secure Mode, Test & Copy, AccurateRip,
TOC of the extracted CD
Track | Start | Length | Start sector | End sector
---------------------------------------------------------
1 | 0:00.00 | 3:08.55 | 0 | 14154
2 | 3:08.55 | 7:15.17 | 14155 | 46796
3 | 10:23.72 | 3:31.64 | 46797 | 62685
4 | 13:55.61 | 5:16.20 | 62686 | 86405
5 | 19:12.06 | 8:01.35 | 86406 | 122515
Track 1
Filename J:\New Rips\Dave Pike - The Doors Of Perception (2007) [FLAC] {Wounded Bird WOU 2007 orig 1970}\01 - Free Improvisation.wav
Pre-gap length 0:00:02.00
Peak level 96.1 %
Track quality 100.0 %
Test CRC B8787CC2
Copy CRC B8787CC2
Accurately ripped (confidence 1) [669EC9B2]
Copy OK
Track 2
Filename J:\New Rips\Dave Pike - The Doors Of Perception (2007) [FLAC] {Wounded Bird WOU 2007 orig 1970}\02 - The Drifter.wav
Peak level 96.1 %
Track quality 100.0 %
Test CRC 54A43C4C
Copy CRC 54A43C4C
Accurately ripped (confidence 1) [739D5C63]
Copy OK
Track 3
Filename J:\New Rips\Dave Pike - The Doors Of Perception (2007) [FLAC] {Wounded Bird WOU 2007 orig 1970}\03 - The Doors Of Perception.wav
Peak level 96.1 %
Track quality 99.9 %
Test CRC 467B6677
Copy CRC 467B6677
Accurately ripped (confidence 1) [F5524CFB]
Copy OK
Track 4
Filename J:\New Rips\Dave Pike - The Doors Of Perception (2007) [FLAC] {Wounded Bird WOU 2007 orig 1970}\04 - Ballad.wav
Peak level 96.1 %
Track quality 100.0 %
Test CRC 3839CFE2
Copy CRC 3839CFE2
Accurately ripped (confidence 1) [60FA95CE]
Copy OK
Track 5
Filename J:\New Rips\Dave Pike - The Doors Of Perception (2007) [FLAC] {Wounded Bird WOU 2007 orig 1970}\05 - Anticipation.wav
Peak level 96.1 %
Track quality 100.0 %
Test CRC CAD7BABB
Copy CRC CAD7BABB
Accurately ripped (confidence 1) [60BCFE45]
Copy OK
All tracks accurately ripped
No errors occurred
End of status report
 
Содержание индексной карты (.CUE)
REM GENRE Jazz
REM DATE 1970
REM DISCID 36066105
REM COMMENT "ExactAudioCopy v0.99pb5"
PERFORMER "Dave Pike"
TITLE "The Doors Of Perception"
FILE "01 - Free Improvisation.flac" WAVE
TRACK 01 AUDIO
TITLE "Free Improvisation"
PERFORMER "Dave Pike"
INDEX 01 00:00:00
FILE "02 - The Drifter.flac" WAVE
TRACK 02 AUDIO
TITLE "The Drifter"
PERFORMER "Dave Pike"
INDEX 01 00:00:00
FILE "03 - The Doors Of Perception.flac" WAVE
TRACK 03 AUDIO
TITLE "The Doors Of Perception"
PERFORMER "Dave Pike"
INDEX 01 00:00:00
FILE "04 - Ballad.flac" WAVE
TRACK 04 AUDIO
TITLE "Ballad"
PERFORMER "Dave Pike"
INDEX 01 00:00:00
FILE "05 - Anticipation.flac" WAVE
TRACK 05 AUDIO
TITLE "Anticipation"
PERFORMER "Dave Pike"
INDEX 01 00:00:00
11:16
279
Нет комментариев. Ваш будет первым!